<?xml version="1.0" standalone="no"?>
<!DOCTYPE svg PUBLIC "-//W3C//DTD SVG 1.1//EN" "http://www.w3.org/Graphics/SVG/1.1/DTD/svg11.dtd" >
<svg xmlns="http://www.w3.org/2000/svg" xmlns:xlink="http://www.w3.org/1999/xlink" version="1.1">
<metadata></metadata>
<defs>
<font id="vw_headbold" horiz-adv-x="1208" >
<font-face units-per-em="2048" ascent="1612" descent="-436" />
<missing-glyph horiz-adv-x="473" />
<glyph horiz-adv-x="0" />
<glyph horiz-adv-x="0" />
<glyph horiz-adv-x="682" />
<glyph unicode="&#xd;" horiz-adv-x="473" />
<glyph unicode=" "  horiz-adv-x="473" />
<glyph unicode="&#x09;" horiz-adv-x="473" />
<glyph unicode="&#xa0;" horiz-adv-x="473" />
<glyph unicode="!" horiz-adv-x="575" d="M113 145q0 79 47.5 128t126.5 49t126.5 -49t47.5 -128t-47.5 -127.5t-126.5 -48.5t-126.5 48.5t-47.5 127.5zM139 1083v310h297v-310l-57 -591h-182z" />
<glyph unicode="&#x22;" horiz-adv-x="909" d="M115 1200v193h284v-193l-57 -371h-170zM510 1200v193h285v-193l-58 -371h-170z" />
<glyph unicode="#" horiz-adv-x="1488" d="M63 326v190h250l101 348h-185v191h238l98 338h217v-21l-92 -317h309l99 338h217v-21l-92 -317h202v-191h-256l-100 -348h191v-190h-246l-92 -326h-217v20l86 306h-310l-92 -326h-217v20l86 306h-195zM537 516h309l100 348h-309z" />
<glyph unicode="$" d="M109 102l88 224q60 -39 153 -72t180 -43v377l-65 22q-333 112 -330 387q0 170 101.5 281t293.5 137v162h183v-158q199 -27 340 -96l-86 -227q-111 57 -254 82v-363q203 -63 296 -156.5t93 -248.5q0 -174 -103 -287.5t-286 -142.5v-201h-183v192q-112 10 -227 47t-194 84z M401 1022q0 -60 28.5 -100t105.5 -68v336q-75 -22 -104.5 -62.5t-29.5 -105.5zM707 207q127 49 127 178q0 55 -31 92.5t-96 67.5v-338z" />
<glyph unicode="%" horiz-adv-x="1654" d="M66 1030q0 173 83.5 276t227.5 103q149 0 233 -102.5t84 -276.5q0 -171 -84 -273t-233 -102q-144 0 -227.5 102.5t-83.5 272.5zM258 0v20l934 1373h213v-21l-934 -1372h-213zM264 1030q0 -209 113 -209q61 0 91 50t30 159q0 213 -121 213q-113 0 -113 -213zM961 358 q0 173 83.5 276t227.5 103q149 0 233 -102.5t84 -276.5q0 -171 -84 -272.5t-233 -101.5q-144 0 -227.5 102t-83.5 272zM1159 358q0 -208 113 -208q61 0 91 50t30 158q0 213 -121 213q-113 0 -113 -213z" />
<glyph unicode="&#x26;" horiz-adv-x="1521" d="M94 348q0 44 12 84.5t28 71t46.5 63t52.5 52t62 45.5t59.5 37.5t59.5 33.5l14 8l-4 5q-33 32 -57 59.5t-53.5 69t-45.5 89.5t-16 97q0 151 116 255.5t304 104.5q172 0 288.5 -105.5t116.5 -252.5q0 -61 -18.5 -112.5t-55 -92.5t-74 -70t-89.5 -61l-39 -22l233 -232 q87 100 211 283l191 -127q-135 -202 -240 -318l297 -293v-20h-330l-143 143q-223 -174 -473 -174q-208 0 -330.5 104t-122.5 275zM387 367q0 -71 51 -112.5t144 -41.5q144 0 274 96l-270 275l-25 -15q-35 -19 -57.5 -33.5t-53.5 -40.5t-47 -58.5t-16 -69.5zM524 1053 q0 -78 78 -150l35 -37l57 35q61 34 92 69t31 83q0 54 -40.5 93.5t-104.5 39.5q-70 0 -109 -37.5t-39 -95.5z" />
<glyph unicode="'" horiz-adv-x="514" d="M115 1200v193h284v-193l-57 -371h-170z" />
<glyph unicode="(" horiz-adv-x="589" d="M86 514q0 279 77 527t197 425l160 -69q-178 -387 -178 -883t178 -883l-160 -69q-120 177 -197 425t-77 527z" />
<glyph unicode=")" horiz-adv-x="589" d="M70 -369q178 387 178 883t-178 883l159 69q120 -178 197.5 -425.5t77.5 -526.5t-77.5 -526.5t-197.5 -425.5z" />
<glyph unicode="*" horiz-adv-x="903" d="M92 981l213 92v4l-213 92l96 172l185 -137l4 2l-25 228h199l-27 -228l4 -2l185 137l98 -172l-213 -90v-4l213 -94l-96 -172l-187 139l-4 -2l27 -231h-199l27 229l-4 2l-185 -137z" />
<glyph unicode="+" d="M80 451v211h412v436h219v-436h413v-211h-413v-439h-219v439h-412z" />
<glyph unicode="," horiz-adv-x="552" d="M31 -309l135 600h276v-21l-204 -600h-207v21z" />
<glyph unicode="-" horiz-adv-x="847" d="M127 451v211h594v-211h-594z" />
<glyph unicode="." horiz-adv-x="557" d="M104 145q0 79 48 128t127 49t126.5 -49t47.5 -128t-47.5 -127.5t-126.5 -48.5t-127 49t-48 127z" />
<glyph unicode="/" horiz-adv-x="917" d="M51 0v20l578 1373h237v-21l-577 -1372h-238z" />
<glyph unicode="0" d="M63 696q0 727 541 727q537 0 537 -727t-537 -727q-541 0 -541 727zM360 696q0 -251 55.5 -367t188.5 -116q132 0 186 115.5t54 367.5t-54 368t-186 116q-133 0 -188.5 -116.5t-55.5 -367.5z" />
<glyph unicode="1" d="M188 0v238h314v872h-4l-244 -76h-25v244l344 115h213v-1155h271v-238h-869z" />
<glyph unicode="2" d="M106 1219q72 78 193 141t260 63q229 0 369.5 -117t140.5 -325q0 -55 -17 -112t-38.5 -97t-57.5 -86.5t-56 -67.5t-52 -53l-350 -323v-4h585v-238h-972v205l520 506q70 65 105.5 126t35.5 144t-60.5 141t-152.5 58q-90 0 -159.5 -37.5t-143.5 -108.5z" />
<glyph unicode="3" d="M84 74l76 225q163 -86 375 -86q114 0 186 48.5t72 133.5q0 98 -59.5 143.5t-198.5 45.5h-238v237h238q221 0 221 183q0 83 -54.5 129.5t-166.5 46.5q-167 0 -336 -70l-82 221q87 41 201.5 66.5t216.5 25.5q255 0 386.5 -103t131.5 -292q0 -114 -63 -193.5t-146 -107.5v-4 q110 -39 178 -128t68 -220q0 -188 -144 -297t-411 -109q-145 0 -251 27t-200 78z" />
<glyph unicode="4" d="M41 295v205l393 893h285l-365 -856v-5h351v408h284v-408h158v-237h-158v-295h-284v295h-664z" />
<glyph unicode="5" d="M88 45l66 240q86 -36 184.5 -54t173.5 -18q136 0 206 57.5t70 163.5q0 102 -67.5 153.5t-218.5 51.5q-105 0 -281 -12l-35 35l78 731h766v-238h-524l-29 -276q46 4 90 4q117 0 209.5 -24.5t163 -76.5t108 -140t37.5 -208q0 -220 -154.5 -342.5t-426.5 -122.5 q-79 0 -198 20.5t-218 55.5z" />
<glyph unicode="6" d="M76 453q0 181 98 338l385 602h315v-21l-321 -471l2 -4q60 27 154 27q190 0 313 -132.5t123 -338.5q0 -100 -35.5 -187.5t-101.5 -153.5t-168 -104.5t-228 -38.5q-129 0 -232.5 38.5t-169 105t-100 153.5t-34.5 187zM373 453q0 -115 63.5 -177.5t175.5 -62.5 q110 0 173 62.5t63 177.5q0 114 -62 170.5t-174 56.5q-114 0 -176.5 -56.5t-62.5 -170.5z" />
<glyph unicode="7" d="M129 1155v238h963v-205l-533 -1188h-299v20l522 1131v4h-653z" />
<glyph unicode="8" d="M72 377q0 130 63 220.5t172 133.5v4q-180 79 -180 299q0 177 120 283t357 106t357 -106t120 -283q0 -218 -180 -299v-4q109 -43 172.5 -133.5t63.5 -220.5q0 -188 -137.5 -298t-395.5 -110t-395 110t-137 298zM369 408q0 -91 57.5 -143t177.5 -52t178 52t58 143 q0 90 -58 142t-178 52q-235 0 -235 -194zM424 1010q0 -170 180 -170t180 170t-180 170t-180 -170z" />
<glyph unicode="9" d="M61 940q0 100 35.5 187t101.5 153.5t168 104.5t228 38q128 0 231 -38t169 -104.5t101 -153.5t35 -187q0 -181 -98 -338l-385 -602h-315v20l321 472l-2 4q-60 -27 -153 -27q-190 0 -313.5 132.5t-123.5 338.5zM358 940q0 -114 62 -170.5t174 -56.5q114 0 177 56.5 t63 170.5q0 115 -64 177.5t-176 62.5q-110 0 -173 -62.5t-63 -177.5z" />
<glyph unicode=":" horiz-adv-x="602" d="M127 145q0 79 47.5 128t126.5 49t126.5 -49t47.5 -128t-47.5 -127.5t-126.5 -48.5t-126.5 48.5t-47.5 127.5zM127 842q0 79 47.5 127.5t126.5 48.5t126.5 -48.5t47.5 -127.5t-47.5 -127.5t-126.5 -48.5t-126.5 48.5t-47.5 127.5z" />
<glyph unicode=";" horiz-adv-x="604" d="M43 -309l135 600h277v-21l-205 -600h-207v21zM143 842q0 79 47.5 127.5t126.5 48.5t127 -49t48 -127t-48 -127t-127 -49t-126.5 48.5t-47.5 127.5z" />
<glyph unicode="&#x3c;" d="M49 453v202l1024 461h21v-223l-799 -336v-6l799 -336v-223h-21z" />
<glyph unicode="=" d="M123 219v211h962v-211h-962zM123 682v211h962v-211h-962z" />
<glyph unicode="&#x3e;" d="M115 -8v223l798 336v6l-798 336v223h20l1024 -461v-202l-1024 -461h-20z" />
<glyph unicode="?" horiz-adv-x="1032" d="M51 1225q66 75 183 136.5t249 61.5q221 0 349.5 -103t128.5 -282q0 -254 -340 -420l-27 -126h-223l-13 264q140 42 223 110.5t83 157.5q0 64 -48.5 110t-132.5 46t-149.5 -37.5t-136.5 -108.5zM307 145q0 79 47.5 128t126.5 49t126.5 -49t47.5 -128t-47.5 -127.5 t-126.5 -48.5t-126.5 48.5t-47.5 127.5z" />
<glyph unicode="@" horiz-adv-x="1843" d="M88 573q0 176 62.5 336.5t175.5 284t286 197t379 73.5q183 0 333.5 -60.5t249 -165t152.5 -243t54 -295.5q0 -141 -38 -257.5t-100 -190.5t-139.5 -114t-159.5 -40q-181 0 -251 131h-5q-139 -106 -272 -106q-141 0 -230 99.5t-89 258.5q0 102 29 200t82 177.5t135 128.5 t180 49q53 0 101 -17t72 -33.5t58 -45.5h2l47 72h160l-98 -545q-38 -201 96 -201q97 0 169.5 112t72.5 320q0 98 -22 185.5t-70 164t-118.5 132.5t-173.5 88t-229 32q-136 0 -253 -39t-201 -107.5t-143.5 -160.5t-88.5 -198.5t-29 -221.5q0 -328 172 -513t492 -185 q146 0 330 53l41 -151q-168 -64 -371 -64q-396 0 -623 223.5t-227 636.5zM721 494q0 -82 37 -129.5t112 -47.5q41 0 89.5 16.5t80.5 41.5l68 416q-59 53 -150 53q-107 0 -172 -102t-65 -248z" />
<glyph unicode="A" horiz-adv-x="1368" d="M6 0l512 1393h332l512 -1393h-313l-93 287h-544l-95 -287h-311zM489 516h388l-191 586h-6z" />
<glyph unicode="B" horiz-adv-x="1335" d="M162 0v1393h510q258 0 387 -91t129 -286q0 -106 -50.5 -180t-129.5 -109v-4q239 -81 239 -326q0 -200 -123 -298.5t-389 -98.5h-573zM446 238h265q128 0 183.5 42.5t55.5 137.5q0 96 -57.5 140t-194.5 44h-252v-364zM446 827h213q125 0 178.5 35.5t53.5 126.5 q0 93 -52.5 129.5t-183.5 36.5h-209v-328z" />
<glyph unicode="C" horiz-adv-x="1239" d="M94 696q0 218 77.5 381t231.5 254.5t369 91.5q198 0 395 -90l-75 -225q-89 39 -162 55.5t-158 16.5q-182 0 -281.5 -131t-99.5 -353q0 -221 99.5 -352t281.5 -131q85 0 158 16.5t162 55.5l75 -226q-197 -90 -395 -90q-215 0 -369 91.5t-231.5 254.5t-77.5 381z" />
<glyph unicode="D" horiz-adv-x="1413" d="M162 0v1393h436q194 0 331.5 -45t221 -135t122 -217t38.5 -300t-38.5 -299.5t-122 -217t-221 -135t-331.5 -44.5h-436zM446 238h125q108 0 184.5 18t127 52t79.5 91.5t40.5 127.5t11.5 169q0 124 -18.5 205.5t-67.5 141t-136 86t-221 26.5h-125v-917z" />
<glyph unicode="E" d="M162 0v1393h934v-238h-650v-334h582v-237h-582v-346h656v-238h-940z" />
<glyph unicode="F" horiz-adv-x="1169" d="M162 0v1393h934v-238h-650v-383h582v-237h-582v-535h-284z" />
<glyph unicode="G" horiz-adv-x="1404" d="M94 696q0 119 26.5 226t82.5 199t137.5 159t198.5 105t258 38q130 0 255 -29t218 -71l-82 -221q-189 78 -391 78q-208 0 -307 -128t-99 -356q0 -229 92 -356t285 -127q143 0 233 37v260l-247 35v203h532v-658q-101 -53 -244 -87t-286 -34q-163 0 -289.5 53t-207.5 150 t-123 229.5t-42 294.5z" />
<glyph unicode="H" horiz-adv-x="1478" d="M162 0v1393h284v-572h586v572h285v-1393h-285v584h-586v-584h-284z" />
<glyph unicode="I" horiz-adv-x="608" d="M162 0v1393h284v-1393h-284z" />
<glyph unicode="J" horiz-adv-x="987" d="M14 115l129 204q58 -53 109 -79.5t125 -26.5q91 0 132.5 63.5t41.5 165.5v951h285v-969q0 -224 -120 -339.5t-339 -115.5q-201 0 -363 146z" />
<glyph unicode="K" horiz-adv-x="1316" d="M162 0v1393h284v-674h5l507 674h316v-21l-533 -690l559 -662v-20h-331l-518 623h-5v-623h-284z" />
<glyph unicode="L" horiz-adv-x="1091" d="M162 0v1393h284v-1155h601v-238h-885z" />
<glyph unicode="M" horiz-adv-x="1724" d="M162 0v1393h274l424 -746h4l424 746h275v-1393h-285v905h-4l-299 -555h-225l-299 555h-5v-905h-284z" />
<glyph unicode="N" horiz-adv-x="1507" d="M162 0v1393h301l592 -961h6v961h285v-1393h-302l-591 961h-7v-961h-284z" />
<glyph unicode="O" horiz-adv-x="1533" d="M96 696q0 155 40.5 285t120.5 230t210.5 156t300.5 56q135 0 246 -36.5t189 -102t131.5 -157t78.5 -200t25 -231.5t-25 -231.5t-78.5 -200t-131.5 -157t-189 -102t-246 -36.5q-170 0 -300.5 56t-210.5 156t-120.5 230t-40.5 285zM393 696q0 -106 20.5 -191.5t63.5 -152 t116.5 -103t174.5 -36.5q100 0 173.5 36.5t116.5 103t63 152t20 191.5t-20 191.5t-63 152.5t-116.5 103.5t-173.5 36.5q-101 0 -174.5 -36.5t-116.5 -103.5t-63.5 -152t-20.5 -192z" />
<glyph unicode="P" horiz-adv-x="1220" d="M162 0v1393h530q124 0 215.5 -34t146 -97t81 -145t26.5 -185t-27 -186t-82 -146t-146.5 -97t-213.5 -34h-246v-469h-284zM446 707h226q99 0 145.5 60.5t46.5 164.5q0 223 -192 223h-226v-448z" />
<glyph unicode="Q" horiz-adv-x="1533" d="M96 696q0 155 40.5 285t120.5 230t210.5 156t300.5 56q135 0 246 -36.5t189 -102t131.5 -157t78.5 -200t25 -231.5q0 -189 -61 -343.5t-181 -250.5l303 -147l-127 -236l-487 258q-52 -8 -117 -8q-170 0 -300.5 56t-210.5 156t-120.5 230t-40.5 285zM393 696 q0 -106 20.5 -191.5t63.5 -152t116.5 -103t174.5 -36.5q100 0 173.5 36.5t116.5 103t63 152t20 191.5t-20 191.5t-63 152.5t-116.5 103.5t-173.5 36.5q-101 0 -174.5 -36.5t-116.5 -103.5t-63.5 -152t-20.5 -192z" />
<glyph unicode="R" horiz-adv-x="1359" d="M162 0v1393h588q243 0 363 -107.5t120 -312.5q0 -162 -76.5 -265t-228.5 -139l381 -536v-33h-312l-372 551h-179v-551h-284zM446 788h289q96 0 148.5 49.5t52.5 135.5q0 85 -52.5 133.5t-148.5 48.5h-289v-367z" />
<glyph unicode="S" horiz-adv-x="1148" d="M78 102l88 224q71 -44 183.5 -80.5t201.5 -36.5q229 0 229 176q0 66 -42 102t-154 74l-150 49q-164 53 -247 152.5t-83 234.5q0 195 131 310.5t375 115.5q90 0 205 -26.5t207 -73.5l-86 -227q-76 37 -168.5 62.5t-157.5 25.5q-215 0 -215 -162q0 -58 31.5 -96.5 t112.5 -63.5l145 -47q202 -63 294.5 -156.5t92.5 -248.5q0 -205 -139 -323t-381 -118q-120 0 -248.5 39t-224.5 94z" />
<glyph unicode="T" horiz-adv-x="1163" d="M47 1155v238h1069v-238h-393v-1155h-285v1155h-391z" />
<glyph unicode="U" horiz-adv-x="1445" d="M145 571v822h285v-822q0 -165 70 -261.5t223 -96.5q78 0 135.5 26.5t91.5 76t50 113t16 142.5v822h284v-822q0 -602 -577 -602q-578 0 -578 602z" />
<glyph unicode="V" horiz-adv-x="1353" d="M12 1372v21h310l354 -1094h6l350 1094h309v-21l-491 -1372h-346z" />
<glyph unicode="W" horiz-adv-x="2076" d="M39 1372v21h305l236 -1086h4l288 1086h332l289 -1086h4l234 1086h307v-21l-379 -1372h-338l-281 1079h-2l-280 -1079h-340z" />
<glyph unicode="X" horiz-adv-x="1277" d="M43 0v20l391 678l-391 674v21h309l285 -525h4l287 525h307v-21l-393 -674l393 -678v-20h-311l-283 526h-4l-283 -526h-311z" />
<glyph unicode="Y" horiz-adv-x="1236" d="M-6 1372v21h311l309 -574h4l310 574h311v-21l-479 -811v-561h-285v561z" />
<glyph unicode="Z" horiz-adv-x="1202" d="M76 0v205l680 946v4h-637v238h989v-205l-682 -946v-4h682v-238h-1032z" />
<glyph unicode="[" horiz-adv-x="686" d="M143 -406v1840h475v-150l-239 -47v-1446l239 -47v-150h-475z" />
<glyph unicode="\" horiz-adv-x="917" d="M51 1372v21h238l577 -1373v-20h-237z" />
<glyph unicode="]" horiz-adv-x="686" d="M68 -256l239 47v1446l-239 47v150h475v-1840h-475v150z" />
<glyph unicode="^" horiz-adv-x="1032" d="M-4 762v20l377 652h258l377 -652v-20h-273l-229 416h-8l-230 -416h-272z" />
<glyph unicode="_" horiz-adv-x="1032" d="M125 -41h782v-190h-782v190z" />
<glyph unicode="`" d="M377 1442v18h291l161 -278v-21h-241z" />
<glyph unicode="a" horiz-adv-x="1112" d="M66 281q0 167 114.5 245t372.5 78h133v45q0 43 -17 73.5t-45.5 44t-53.5 19t-52 5.5q-167 0 -328 -72l-65 211q195 88 407 88q211 0 317.5 -103.5t106.5 -296.5v-403q0 -24 5 -30.5t28 -6.5h72v-188q-81 -15 -143 -15q-77 0 -123.5 29t-73.5 88h-4q-57 -48 -145.5 -85.5 t-172.5 -37.5q-161 0 -247 86t-86 226zM330 305q0 -119 131 -119q55 0 119 19t106 49v172h-104q-252 0 -252 -121z" />
<glyph unicode="b" horiz-adv-x="1200" d="M129 0v1434h277v-519h4q41 30 70 47.5t88 36.5t122 19q138 0 237.5 -72t147 -188.5t47.5 -263.5q0 -109 -28 -203.5t-80.5 -166.5t-136 -113.5t-187.5 -41.5q-51 0 -96.5 10t-90.5 33t-64 35t-62 41h-4l-39 -88h-205zM406 256q98 -59 198 -59q119 0 177.5 79.5 t58.5 217.5t-58.5 217.5t-177.5 79.5q-98 0 -198 -60v-475z" />
<glyph unicode="c" horiz-adv-x="980" d="M78 494q0 242 137.5 383t386.5 141q149 0 307 -60l-55 -210q-136 43 -219 43q-122 0 -198.5 -72.5t-76.5 -224.5q0 -153 75.5 -225t199.5 -72q83 0 219 43l55 -211q-158 -60 -307 -60q-249 0 -386.5 141.5t-137.5 383.5z" />
<glyph unicode="d" horiz-adv-x="1202" d="M80 494q0 147 47.5 263.5t147 188.5t237.5 72q48 0 91.5 -9t80 -27t58 -31.5t51.5 -35.5h4v519h276v-1434h-205l-39 88h-4q-39 -27 -61 -41.5t-64.5 -36t-89 -31.5t-98.5 -10q-104 0 -187.5 41.5t-136 113.5t-80.5 166.5t-28 203.5zM362 494q0 -138 58.5 -217.5 t177.5 -79.5q101 0 199 59v475q-100 60 -199 60q-119 0 -177.5 -79.5t-58.5 -217.5z" />
<glyph unicode="e" horiz-adv-x="1103" d="M76 496q0 143 55 260t169 189.5t269 72.5q116 0 206 -33.5t144.5 -93t82.5 -135t28 -164.5q0 -96 -14 -178h-660q8 -105 73 -164.5t175 -59.5q146 0 316 62l63 -199q-175 -84 -399 -84q-125 0 -223 41t-159.5 113.5t-93.5 167t-32 205.5zM356 586h420q2 10 2 30 q0 91 -48.5 146t-158.5 55q-98 0 -154 -67t-61 -164z" />
<glyph unicode="f" horiz-adv-x="780" d="M41 776v150l174 61v131q0 165 89 245.5t247 80.5q101 0 176 -14v-228q-73 15 -133 15q-57 0 -79.5 -22.5t-22.5 -88.5v-119h245v-211h-245v-776h-277v776h-174z" />
<glyph unicode="g" horiz-adv-x="1200" d="M80 500q0 147 47 262t146 185.5t237 70.5q27 0 53 -3.5t45.5 -7.5t43.5 -14t37.5 -16t36 -20t30.5 -19.5t31 -21.5t28 -19h4l37 90h215v-924q0 -246 -132 -372.5t-378 -126.5q-206 0 -387 96l80 203q137 -72 307 -72q124 0 179 50t55 171v74h-4q-39 -28 -69.5 -46 t-89 -35t-122.5 -17q-138 0 -237 69t-146 183t-47 260zM362 500q0 -285 234 -285q101 0 199 55v459q-103 62 -199 62q-119 0 -176.5 -77t-57.5 -214z" />
<glyph unicode="h" horiz-adv-x="1189" d="M129 0v1434h277v-529h4q48 44 127 78.5t168 34.5q174 0 270 -107.5t96 -289.5v-621h-276v594q0 197 -177 197q-117 0 -212 -95v-696h-277z" />
<glyph unicode="i" horiz-adv-x="534" d="M109 1311q0 67 44 109t115 42q73 0 117.5 -42t44.5 -109t-44.5 -109.5t-117.5 -42.5q-71 0 -115 42.5t-44 109.5zM129 0v987h277v-987h-277z" />
<glyph unicode="j" horiz-adv-x="534" d="M-92 -199q44 -10 108 -10q60 0 86.5 30.5t26.5 98.5v1067h277v-1050q0 -190 -88.5 -281.5t-266.5 -91.5q-68 0 -143 14v223zM109 1311q0 67 44 109t115 42q73 0 117.5 -42t44.5 -109t-44.5 -109.5t-117.5 -42.5q-71 0 -115 42.5t-44 109.5z" />
<glyph unicode="k" horiz-adv-x="1101" d="M129 0v1434h277v-891h4l346 444h301v-20l-375 -459l393 -488v-20h-313l-352 457h-4v-457h-277z" />
<glyph unicode="l" horiz-adv-x="593" d="M125 270v1164h276v-1213q0 -24 5 -30.5t28 -6.5h109v-188q-75 -14 -164 -14q-138 0 -196 68.5t-58 219.5z" />
<glyph unicode="m" horiz-adv-x="1853" d="M129 0v987h219l35 -96h6q142 127 318 127q208 0 301 -152h4q4 3 24.5 20.5t29.5 25t32.5 24.5t40.5 25.5t45.5 21.5t54.5 19t61 11t72 5q176 0 269.5 -106t93.5 -289v-623h-277v594q0 101 -38.5 149t-133.5 48q-104 0 -223 -95q8 -31 8 -73v-623h-276v594q0 98 -40 147.5 t-134 49.5q-102 0 -215 -84v-707h-277z" />
<glyph unicode="n" horiz-adv-x="1189" d="M129 0v987h221l37 -96h4q142 127 316 127q171 0 267.5 -107t96.5 -288v-623h-276v594q0 197 -177 197q-103 0 -212 -84v-707h-277z" />
<glyph unicode="o" horiz-adv-x="1193" d="M76 494q0 109 34.5 203.5t98.5 166t164 113t223 41.5q126 0 226.5 -41.5t164 -113.5t97.5 -166t34 -203t-34 -203.5t-97.5 -166.5t-164 -113.5t-226.5 -41.5q-123 0 -223 41.5t-164 113.5t-98.5 166.5t-34.5 203.5zM358 494q0 -145 64.5 -221t173.5 -76q112 0 176 75.5 t64 221.5t-64 221.5t-176 75.5q-109 0 -173.5 -76t-64.5 -221z" />
<glyph unicode="p" horiz-adv-x="1200" d="M129 -406v1393h203l39 -88h4q44 33 81 55t102 43t132 21q138 0 237 -72t146 -188.5t47 -263.5t-47 -263.5t-146 -189t-237 -72.5q-46 0 -86 7.5t-76.5 25.5t-54 28t-51.5 34q-4 3 -6.5 4.5t-5.5 3.5h-4v-478h-277zM406 256q91 -59 198 -59q118 0 176 79.5t58 217.5 t-58 217.5t-176 79.5q-105 0 -198 -60v-475z" />
<glyph unicode="q" horiz-adv-x="1200" d="M80 494q0 147 47 263.5t146 188.5t237 72q52 0 98 -10t91 -33t64 -35t62 -41h4l39 88h203v-1393h-276v478h-4q-82 -56 -127 -74q-72 -29 -154 -29q-138 0 -237 72.5t-146 189t-47 263.5zM362 494q0 -138 58 -217.5t176 -79.5q108 0 199 59v475q-93 60 -199 60 q-118 0 -176 -79.5t-58 -217.5z" />
<glyph unicode="r" horiz-adv-x="774" d="M129 0v987h223l39 -119h4q35 60 98.5 105t151.5 45q48 0 98 -12l-24 -232q-41 8 -98 8q-137 0 -215 -96v-686h-277z" />
<glyph unicode="s" horiz-adv-x="958" d="M66 63l81 199q165 -84 318 -84q156 0 156 96q0 42 -32 64t-104 41l-129 31q-268 65 -268 290q0 147 109.5 232.5t300.5 85.5q192 0 368 -72l-75 -196q-157 59 -285 59q-150 0 -150 -90q0 -40 29.5 -61t97.5 -40l125 -30q281 -69 281 -295q0 -152 -112.5 -238t-303.5 -86 q-221 0 -407 94z" />
<glyph unicode="t" horiz-adv-x="849" d="M43 776v150l180 61v230h277v-230h282v-211h-282v-467q0 -112 116 -112q66 0 160 28v-225q-127 -31 -231 -31q-165 0 -243.5 70t-78.5 219v518h-180z" />
<glyph unicode="u" horiz-adv-x="1177" d="M119 365v622h276v-594q0 -99 39.5 -147.5t128.5 -48.5q100 0 209 84v706h277v-987h-224l-37 96h-4q-143 -127 -307 -127q-173 0 -265.5 106.5t-92.5 289.5z" />
<glyph unicode="v" horiz-adv-x="1101" d="M23 967v20h278l248 -706h4l248 706h278v-20l-379 -967h-299z" />
<glyph unicode="w" horiz-adv-x="1720" d="M37 967v20h276l183 -684h4l211 684h299l211 -684h4l182 684h276v-20l-294 -967h-302l-225 711h-4l-225 -711h-301z" />
<glyph unicode="x" horiz-adv-x="1103" d="M43 0v20l313 474l-313 473v20h297l211 -346h4l209 346h297v-20l-313 -473l313 -474v-20h-297l-209 344h-4l-211 -344h-297z" />
<glyph unicode="y" horiz-adv-x="1085" d="M20 967v20h287l238 -672h6l225 672h287v-20l-424 -1088q-125 -315 -395 -315q-77 0 -162 18v219q59 -10 127 -10q67 0 106 25t62 84l41 110z" />
<glyph unicode="z" horiz-adv-x="966" d="M70 0v145l473 627v4h-443v211h783v-145l-475 -627v-4h475v-211h-813z" />
<glyph unicode="{" horiz-adv-x="751" d="M49 416v196q81 0 131.5 42.5t50.5 119.5v270q0 97 17 165t58.5 120.5t117 78.5t186.5 26h74v-150q-115 0 -166 -56.5t-51 -164.5v-283q0 -122 -41.5 -184.5t-134.5 -79.5v-4q93 -17 134.5 -79.5t41.5 -184.5v-283q0 -108 51 -164.5t166 -56.5v-150h-74q-111 0 -186.5 26 t-117 78.5t-58.5 120.5t-17 165v270q0 77 -50.5 119.5t-131.5 42.5z" />
<glyph unicode="|" horiz-adv-x="468" d="M143 -406v1840h183v-1840h-183z" />
<glyph unicode="}" horiz-adv-x="751" d="M68 -256q115 0 166 56.5t51 164.5v283q0 122 41.5 184.5t134.5 79.5v4q-93 17 -134.5 79.5t-41.5 184.5v283q0 108 -51 164.5t-166 56.5v150h73q111 0 186.5 -26t117 -78.5t58.5 -120.5t17 -165v-270q0 -77 50.5 -119.5t131.5 -42.5v-196q-81 0 -131.5 -42.5 t-50.5 -119.5v-270q0 -97 -17 -165t-58.5 -120.5t-117 -78.5t-186.5 -26h-73v150z" />
<glyph unicode="~" horiz-adv-x="1144" d="M92 584q93 133 266 133q58 0 121.5 -17.5t110 -39t106 -39t109.5 -17.5q52 0 82.5 10t62.5 39l99 -129q-96 -131 -265 -131q-53 0 -116 17.5t-111 39t-109 39t-112 17.5q-95 0 -146 -51z" />
<glyph unicode="&#xa1;" horiz-adv-x="548" d="M100 842q0 79 47.5 127.5t126.5 48.5t127 -49t48 -127t-48 -127t-127 -49t-126.5 48.5t-47.5 127.5zM125 -96l57 592h183l57 -592v-310h-297v310z" />
<glyph unicode="&#xa2;" d="M188 494q0 216 114.5 355t324.5 163v172h182v-174q103 -12 211 -52l-55 -210q-85 28 -156 38v-585q65 10 156 39l55 -211q-108 -40 -211 -52v-174h-182v172q-211 24 -325 162.5t-114 356.5zM471 494q0 -209 156 -273v543q-72 -29 -114 -97t-42 -173z" />
<glyph unicode="&#xa3;" d="M119 580v211h119q-11 104 -11 190q0 442 482 442q199 0 395 -92l-76 -225q-172 74 -319 74q-185 0 -185 -199q0 -72 15 -190h368v-211h-338q9 -58 9 -115q0 -118 -105 -223v-4h600v-238h-934v197q142 79 142 217q0 59 -15 166h-147z" />
<glyph unicode="&#xa4;" horiz-adv-x="1226" d="M86 178l184 184q-43 76 -43 191q0 109 45 192l-186 187l152 149l186 -188q74 39 184 39q113 0 189 -43l194 192l150 -149l-193 -193q43 -79 43 -186q0 -110 -43 -186l193 -189l-150 -151l-190 190q-76 -43 -193 -43q-112 0 -186 39l-184 -186zM459 553q0 -89 40 -134.5 t109 -45.5q70 0 111 45.5t41 134.5t-41 134.5t-111 45.5q-69 0 -109 -45.5t-40 -134.5z" />
<glyph unicode="&#xa5;" d="M25 1372v21h311l268 -533h4l269 533h311v-21l-320 -561h258v-211h-376v-135h376v-211h-376v-254h-285v254h-383v211h383v135h-383v211h262z" />
<glyph unicode="&#xa6;" horiz-adv-x="485" d="M152 274h182v-680h-182v680zM152 754v680h182v-680h-182z" />
<glyph unicode="&#xa7;" horiz-adv-x="1185" d="M96 -258l88 244q72 -35 125.5 -57t130.5 -42t142 -20q217 0 217 106q0 45 -32.5 74.5t-127.5 65.5l-238 88q-150 57 -217 128t-67 193q0 81 46.5 144t123.5 100v4q-80 42 -125 114.5t-45 164.5q0 177 130.5 275.5t366.5 98.5q243 0 420 -75l-86 -232q-173 72 -336 72 q-104 0 -154 -31t-50 -84q0 -43 30 -73t113 -58l199 -70q185 -66 262.5 -142.5t77.5 -192.5q0 -84 -46.5 -150t-123.5 -108v-5q170 -91 170 -266q0 -181 -137 -279t-365 -98q-244 0 -492 111zM399 578q0 -102 111 -144l235 -90q62 41 62 121q0 103 -107 145l-239 90 q-30 -18 -46 -51.5t-16 -70.5z" />
<glyph unicode="&#xa8;" d="M217 1311q0 66 44 108.5t116 42.5q73 0 117.5 -42t44.5 -109t-44.5 -109.5t-117.5 -42.5q-71 0 -115.5 42.5t-44.5 109.5zM668 1311q0 67 44 109t115 42q73 0 117.5 -42t44.5 -109t-44.5 -109.5t-117.5 -42.5q-71 0 -115 42.5t-44 109.5z" />
<glyph unicode="&#xa9;" horiz-adv-x="1642" d="M94 696q0 152 56 287t152.5 231.5t231.5 152.5t287 56t287 -56t231.5 -152.5t152.5 -231.5t56 -287t-56 -287t-152.5 -231.5t-231.5 -152.5t-287 -56t-287 56t-231.5 152.5t-152.5 231.5t-56 287zM240 696q0 -164 79 -299t215.5 -211.5t301.5 -76.5q247 0 407 167.5 t160 419.5q0 165 -75.5 299.5t-209 211.5t-297.5 77t-297.5 -77t-208.5 -211.5t-75 -299.5zM438 696q0 183 103.5 291.5t292.5 108.5q121 0 231 -49l-49 -148q-89 41 -182 41q-88 0 -144.5 -68t-56.5 -176t56.5 -175.5t144.5 -67.5q93 0 182 41l49 -148q-110 -49 -231 -49 q-189 0 -292.5 108t-103.5 291z" />
<glyph unicode="&#xaa;" horiz-adv-x="890" d="M133 895q0 103 73 155t210 52h114v18q0 40 -23 58t-81 18q-105 0 -217 -41l-41 154q141 49 268 49q141 0 218 -70.5t77 -193.5v-377h-149l-31 55h-2q-34 -29 -88 -51.5t-109 -22.5q-110 0 -164.5 55t-54.5 142zM152 401v179h579v-179h-579zM334 913q0 -63 69 -63 q60 0 127 39v90h-94q-102 0 -102 -66z" />
<glyph unicode="&#xab;" horiz-adv-x="1110" d="M70 541v24l329 449l170 -101l-219 -362l221 -361l-172 -98zM522 541v24l330 449l170 -101l-219 -362l221 -361l-172 -98z" />
<glyph unicode="&#xac;" d="M78 451v211h1044v-459h-190v248h-854z" />
<glyph unicode="&#xad;" horiz-adv-x="847" d="M127 451v211h594v-211h-594z" />
<glyph unicode="&#xae;" horiz-adv-x="1122" d="M94 1149q0 199 134.5 334t332.5 135t332.5 -135t134.5 -334q0 -198 -134.5 -332.5t-332.5 -134.5t-332.5 134.5t-134.5 332.5zM207 1149q0 -153 104.5 -257t259.5 -104q151 0 247.5 103.5t96.5 257.5q0 153 -100.5 256.5t-253.5 103.5t-253.5 -103.5t-100.5 -256.5z M377 932v446h203q165 0 165 -141q0 -50 -25.5 -85t-74.5 -48l123 -162v-10h-129l-109 164h-41v-164h-112zM489 1186h84q29 0 44.5 14t15.5 35q0 49 -60 49h-84v-98z" />
<glyph unicode="&#xaf;" d="M307 1186v211h594v-211h-594z" />
<glyph unicode="&#xb0;" horiz-adv-x="903" d="M90 1081q0 157 100 249.5t263 92.5t261.5 -92t98.5 -250q0 -160 -98.5 -254t-261.5 -94t-263 94t-100 254zM287 1081q0 -76 45.5 -117.5t120.5 -41.5q76 0 119.5 41t43.5 118q0 72 -44 115t-119 43q-74 0 -120 -43t-46 -115z" />
<glyph unicode="&#xb1;" d="M82 0v211h1044v-211h-1044zM82 676v211h412v395h219v-395h413v-211h-413v-295h-219v295h-412z" />
<glyph unicode="&#xb2;" horiz-adv-x="671" d="M49 1530q110 125 277 125q122 0 200 -63t78 -177q0 -126 -139 -229l-139 -109v-4h288v-155h-563v143l301 239q54 43 54 103q0 38 -25 64t-66 26q-46 0 -79.5 -21t-77.5 -65z" />
<glyph unicode="&#xb3;" horiz-adv-x="663" d="M35 956l49 154q88 -45 201 -45q129 0 129 76q0 34 -24.5 45.5t-86.5 11.5h-143v158h141q48 0 70 16t22 51q0 70 -102 70q-107 0 -185 -35l-53 150q118 47 244 47q141 0 217 -53.5t76 -151.5q0 -69 -34 -108t-81 -46v-2q135 -42 135 -180q0 -213 -323 -213q-142 0 -252 55 z" />
<glyph unicode="&#xb4;" d="M377 1161v21l162 278h290v-18l-211 -281h-241z" />
<glyph unicode="&#xb5;" horiz-adv-x="1181" d="M139 -406v1393h277v-594q0 -99 39.5 -147.5t128.5 -48.5q100 0 209 84v706h276v-987h-223l-37 96h-4q-137 -127 -273 -127q-66 0 -116 33v-408h-277z" />
<glyph unicode="&#xb6;" horiz-adv-x="1228" d="M57 1030q0 167 108.5 265t270.5 98h731v-174h-194v-1625h-180v1625h-175v-1625h-182v1078q-163 0 -271 95.5t-108 262.5z" />
<glyph unicode="&#xb7;" horiz-adv-x="569" d="M111 596q0 79 47.5 127.5t126.5 48.5t126.5 -48.5t47.5 -127.5t-47.5 -127.5t-126.5 -48.5t-126.5 48.5t-47.5 127.5z" />
<glyph unicode="&#xb8;" d="M406 -412l28 129q50 -16 88 -16q72 0 72 51q0 55 -119 55l-8 13l76 194h164l-48 -106q67 -11 104.5 -49.5t37.5 -100.5q0 -91 -63.5 -142.5t-178.5 -51.5q-86 0 -153 24z" />
<glyph unicode="&#xb9;" horiz-adv-x="534" d="M33 1348v172l266 118h143v-720h-188v520h-4l-199 -90h-18z" />
<glyph unicode="&#xba;" horiz-adv-x="899" d="M102 1028q0 140 94 235t253 95q161 0 253.5 -94.5t92.5 -235.5t-92.5 -235.5t-253.5 -94.5q-159 0 -253 95t-94 235zM158 401v179h579v-179h-579zM307 1028q0 -160 142 -160q66 0 103.5 36t37.5 124q0 160 -141 160q-142 0 -142 -160z" />
<glyph unicode="&#xbb;" horiz-adv-x="1112" d="M88 915l172 99l330 -449v-24l-330 -449l-170 101l219 362zM541 915l172 99l329 -449v-24l-329 -449l-170 101l219 362z" />
<glyph unicode="&#xbc;" horiz-adv-x="1546" d="M61 1102v172l267 119h143v-721h-188v520h-4l-199 -90h-19zM188 0v20l934 1373h213v-21l-934 -1372h-213zM856 154v139l184 428h191l-166 -410v-2h143v191h187v-191h86v-155h-86v-154h-187v154h-352z" />
<glyph unicode="&#xbd;" horiz-adv-x="1585" d="M61 1102v172l267 119h143v-721h-188v520h-4l-199 -90h-19zM188 0v20l934 1373h213v-21l-934 -1372h-213zM938 612q110 125 276 125q122 0 200.5 -62.5t78.5 -176.5q0 -127 -139 -230l-140 -108v-4h289v-156h-563v143l301 240q53 42 53 102q0 38 -24.5 64t-65.5 26 q-46 0 -79.5 -21t-77.5 -65z" />
<glyph unicode="&#xbe;" horiz-adv-x="1630" d="M68 705l49 153q88 -45 200 -45q129 0 129 76q0 34 -24 45.5t-86 11.5h-143v158h141q48 0 70 16t22 51q0 70 -102 70q-107 0 -185 -35l-53 150q118 47 244 47q141 0 217 -53.5t76 -151.5q0 -69 -34 -108t-81 -46v-2q135 -42 135 -180q0 -213 -324 -213q-139 0 -251 56z M274 0v20l934 1373h213v-21l-934 -1372h-213zM942 154v139l184 428h191l-166 -410v-2h143v191h187v-191h86v-155h-86v-154h-187v154h-352z" />
<glyph unicode="&#xbf;" horiz-adv-x="1026" d="M68 -51q0 254 340 420l26 127h223l13 -265q-305 -101 -305 -268q0 -66 48 -111t132 -45t149.5 37.5t136.5 108.5l146 -191q-72 -77 -185 -137.5t-247 -60.5q-221 0 -349 103t-128 282zM373 842q0 79 47.5 127.5t126.5 48.5t126.5 -48.5t47.5 -127.5t-47.5 -127.5 t-126.5 -48.5t-126.5 48.5t-47.5 127.5z" />
<glyph unicode="&#xc0;" horiz-adv-x="1368" d="M6 0l512 1393h332l512 -1393h-313l-93 287h-544l-95 -287h-311zM406 1817v18h311l121 -279v-20h-263zM489 516h388l-191 586h-6z" />
<glyph unicode="&#xc1;" horiz-adv-x="1368" d="M6 0l512 1393h332l512 -1393h-313l-93 287h-544l-95 -287h-311zM489 516h388l-191 586h-6zM532 1536v20l121 279h312v-18l-170 -281h-263z" />
<glyph unicode="&#xc2;" horiz-adv-x="1368" d="M6 0l512 1393h332l512 -1393h-313l-93 287h-544l-95 -287h-311zM328 1536v20l227 279h260l227 -279v-20h-229l-129 162l-127 -162h-229zM489 516h388l-191 586h-6z" />
<glyph unicode="&#xc3;" horiz-adv-x="1368" d="M6 0l512 1393h332l512 -1393h-313l-93 287h-544l-95 -287h-311zM328 1702q33 59 92 97t125 38q55 0 108.5 -23t102.5 -46t94 -23q81 0 137 70l55 -140q-34 -64 -93.5 -100.5t-121.5 -36.5q-64 0 -163.5 46t-143.5 46q-78 0 -137 -71zM489 516h388l-191 586h-6z" />
<glyph unicode="&#xc4;" horiz-adv-x="1368" d="M6 0l512 1393h332l512 -1393h-313l-93 287h-544l-95 -287h-311zM256 1677q0 67 44.5 109.5t115.5 42.5q73 0 117.5 -42.5t44.5 -109.5t-44.5 -109t-117.5 -42q-72 0 -116 42.5t-44 108.5zM489 516h388l-191 586h-6zM791 1677q0 67 44 109.5t115 42.5q73 0 117.5 -42.5 t44.5 -109.5t-44.5 -109t-117.5 -42q-71 0 -115 42t-44 109z" />
<glyph unicode="&#xc5;" horiz-adv-x="1363" d="M4 2l524 1352q-43 30 -69.5 79.5t-26.5 104.5q0 105 69 167t181 62q111 0 179.5 -62t68.5 -167q0 -54 -26.5 -103t-69.5 -79l526 -1354h-313l-93 287h-544l-95 -287h-311zM487 518h387l-190 586h-6zM596 1538q0 -38 23.5 -59t62.5 -21t61.5 21t22.5 59q0 37 -23 58.5 t-61 21.5q-39 0 -62.5 -22t-23.5 -58z" />
<glyph unicode="&#xc6;" horiz-adv-x="1961" d="M-39 0v20l825 1373h1063v-238h-649v-334h582v-237h-582v-346h655v-238h-940v287h-479l-170 -287h-305zM567 516h348v598h-6z" />
<glyph unicode="&#xc7;" horiz-adv-x="1241" d="M96 696q0 218 77.5 381t231.5 254.5t369 91.5q198 0 395 -90l-75 -225q-89 39 -162 55.5t-158 16.5q-182 0 -281.5 -131t-99.5 -353q0 -221 99.5 -352t281.5 -131q85 0 158 16.5t162 55.5l75 -226q-178 -81 -368 -90l-27 -61q67 -11 104 -49.5t37 -100.5 q0 -91 -63 -142.5t-178 -51.5q-87 0 -154 24l29 129q50 -16 88 -16q72 0 72 51q0 55 -119 55l-8 13l61 160q-262 36 -404.5 228t-142.5 488z" />
<glyph unicode="&#xc8;" d="M162 0v1393h934v-238h-650v-334h582v-237h-582v-346h656v-238h-940zM346 1817v18h311l121 -279v-20h-262z" />
<glyph unicode="&#xc9;" d="M162 0v1393h934v-238h-650v-334h582v-237h-582v-346h656v-238h-940zM504 1536v20l121 279h311v-18l-170 -281h-262z" />
<glyph unicode="&#xca;" d="M162 0v1393h934v-238h-650v-334h582v-237h-582v-346h656v-238h-940zM276 1536v20l228 279h260l227 -279v-20h-229l-129 162l-127 -162h-230z" />
<glyph unicode="&#xcb;" d="M162 0v1393h934v-238h-650v-334h582v-237h-582v-346h656v-238h-940zM197 1677q0 67 44 109.5t115 42.5q73 0 117.5 -42.5t44.5 -109.5t-44.5 -109t-117.5 -42q-71 0 -115 42t-44 109zM731 1677q0 67 44.5 109.5t115.5 42.5q73 0 117.5 -42.5t44.5 -109.5t-44.5 -109 t-117.5 -42q-72 0 -116 42.5t-44 108.5z" />
<glyph unicode="&#xcc;" horiz-adv-x="608" d="M12 1817v18h312l120 -279v-20h-262zM162 0v1393h284v-1393h-284z" />
<glyph unicode="&#xcd;" horiz-adv-x="608" d="M162 0v1393h284v-1393h-284zM172 1536v20l121 279h311v-18l-170 -281h-262z" />
<glyph unicode="&#xce;" horiz-adv-x="608" d="M-53 1536v20l227 279h260l228 -279v-20h-230l-129 162l-127 -162h-229zM162 0v1393h284v-1393h-284z" />
<glyph unicode="&#xcf;" horiz-adv-x="608" d="M-127 1677q0 67 44.5 109.5t115.5 42.5q73 0 117.5 -42.5t44.5 -109.5t-44.5 -109t-117.5 -42q-72 0 -116 42.5t-44 108.5zM162 0v1393h284v-1393h-284zM408 1677q0 67 44 109.5t115 42.5q73 0 117.5 -42.5t44.5 -109.5t-44.5 -109t-117.5 -42q-71 0 -115 42t-44 109z " />
<glyph unicode="&#xd0;" horiz-adv-x="1443" d="M94 567v238h99v588h436q194 0 331.5 -45t221 -135t121.5 -217t38 -300t-38 -299.5t-121.5 -217t-221 -135t-331.5 -44.5h-436v567h-99zM477 238h125q134 0 220.5 26t135.5 85.5t67.5 140.5t18.5 206t-18.5 206t-67.5 140.5t-135.5 86t-220.5 26.5h-125v-350h232v-238 h-232v-329z" />
<glyph unicode="&#xd1;" horiz-adv-x="1507" d="M162 0v1393h301l592 -961h6v961h285v-1393h-302l-591 961h-7v-961h-284zM387 1702q33 59 92 97t125 38q55 0 108.5 -23t102.5 -46t94 -23q82 0 138 70l55 -140q-34 -64 -93.5 -100.5t-121.5 -36.5q-64 0 -163.5 46t-143.5 46q-79 0 -138 -71z" />
<glyph unicode="&#xd2;" horiz-adv-x="1533" d="M96 696q0 155 40.5 285t120.5 230t210.5 156t300.5 56q135 0 246 -36.5t189 -102t131.5 -157t78.5 -200t25 -231.5t-25 -231.5t-78.5 -200t-131.5 -157t-189 -102t-246 -36.5q-170 0 -300.5 56t-210.5 156t-120.5 230t-40.5 285zM393 696q0 -106 20.5 -191.5t63.5 -152 t116.5 -103t174.5 -36.5q100 0 173.5 36.5t116.5 103t63 152t20 191.5t-20 191.5t-63 152.5t-116.5 103.5t-173.5 36.5q-101 0 -174.5 -36.5t-116.5 -103.5t-63.5 -152t-20.5 -192zM508 1817v18h311l121 -279v-20h-262z" />
<glyph unicode="&#xd3;" horiz-adv-x="1533" d="M96 696q0 155 40.5 285t120.5 230t210.5 156t300.5 56q135 0 246 -36.5t189 -102t131.5 -157t78.5 -200t25 -231.5t-25 -231.5t-78.5 -200t-131.5 -157t-189 -102t-246 -36.5q-170 0 -300.5 56t-210.5 156t-120.5 230t-40.5 285zM393 696q0 -106 20.5 -191.5t63.5 -152 t116.5 -103t174.5 -36.5q100 0 173.5 36.5t116.5 103t63 152t20 191.5t-20 191.5t-63 152.5t-116.5 103.5t-173.5 36.5q-101 0 -174.5 -36.5t-116.5 -103.5t-63.5 -152t-20.5 -192zM631 1536v20l121 279h311v-18l-170 -281h-262z" />
<glyph unicode="&#xd4;" horiz-adv-x="1533" d="M96 696q0 155 40.5 285t120.5 230t210.5 156t300.5 56q135 0 246 -36.5t189 -102t131.5 -157t78.5 -200t25 -231.5t-25 -231.5t-78.5 -200t-131.5 -157t-189 -102t-246 -36.5q-170 0 -300.5 56t-210.5 156t-120.5 230t-40.5 285zM393 696q0 -106 20.5 -191.5t63.5 -152 t116.5 -103t174.5 -36.5q100 0 173.5 36.5t116.5 103t63 152t20 191.5t-20 191.5t-63 152.5t-116.5 103.5t-173.5 36.5q-101 0 -174.5 -36.5t-116.5 -103.5t-63.5 -152t-20.5 -192zM424 1536v20l227 279h260l228 -279v-20h-230l-129 162l-127 -162h-229z" />
<glyph unicode="&#xd5;" horiz-adv-x="1533" d="M96 696q0 155 40.5 285t120.5 230t210.5 156t300.5 56q135 0 246 -36.5t189 -102t131.5 -157t78.5 -200t25 -231.5t-25 -231.5t-78.5 -200t-131.5 -157t-189 -102t-246 -36.5q-170 0 -300.5 56t-210.5 156t-120.5 230t-40.5 285zM393 696q0 -106 20.5 -191.5t63.5 -152 t116.5 -103t174.5 -36.5q100 0 173.5 36.5t116.5 103t63 152t20 191.5t-20 191.5t-63 152.5t-116.5 103.5t-173.5 36.5q-101 0 -174.5 -36.5t-116.5 -103.5t-63.5 -152t-20.5 -192zM416 1702q33 59 92 97t125 38q55 0 108.5 -23t102.5 -46t94 -23q81 0 137 70l55 -140 q-34 -64 -93.5 -100.5t-121.5 -36.5q-64 0 -163.5 46t-143.5 46q-78 0 -137 -71z" />
<glyph unicode="&#xd6;" horiz-adv-x="1533" d="M96 696q0 155 40.5 285t120.5 230t210.5 156t300.5 56q135 0 246 -36.5t189 -102t131.5 -157t78.5 -200t25 -231.5t-25 -231.5t-78.5 -200t-131.5 -157t-189 -102t-246 -36.5q-170 0 -300.5 56t-210.5 156t-120.5 230t-40.5 285zM344 1677q0 67 44.5 109.5t115.5 42.5 q73 0 117.5 -42.5t44.5 -109.5t-44.5 -109t-117.5 -42q-72 0 -116 42.5t-44 108.5zM393 696q0 -106 20.5 -191.5t63.5 -152t116.5 -103t174.5 -36.5q100 0 173.5 36.5t116.5 103t63 152t20 191.5t-20 191.5t-63 152.5t-116.5 103.5t-173.5 36.5q-101 0 -174.5 -36.5 t-116.5 -103.5t-63.5 -152t-20.5 -192zM879 1677q0 67 44 109.5t115 42.5q73 0 117.5 -42.5t44.5 -109.5t-44.5 -109t-117.5 -42q-71 0 -115 42t-44 109z" />
<glyph unicode="&#xd7;" d="M117 217l336 338l-336 338l149 149l336 -337l340 337l150 -149l-340 -338l340 -338l-150 -149l-340 338l-336 -338z" />
<glyph unicode="&#xd8;" horiz-adv-x="1533" d="M96 696q0 155 40.5 285t120.5 230t210.5 156t300.5 56q184 0 324 -67l71 108l158 -106l-78 -113q195 -198 195 -549q0 -123 -25 -231.5t-78.5 -200t-131.5 -157t-189 -102t-246 -36.5q-193 0 -342 76l-72 -111l-159 105l81 121q-180 192 -180 536zM393 696 q0 -183 51 -288l500 733q-73 39 -176 39q-101 0 -174.5 -36.5t-116.5 -103.5t-63.5 -152t-20.5 -192zM571 260q83 -47 197 -47q100 0 173.5 36.5t116.5 103t63 152t20 191.5q0 186 -64 308z" />
<glyph unicode="&#xd9;" horiz-adv-x="1445" d="M145 571v822h285v-822q0 -165 70 -261.5t223 -96.5q78 0 135.5 26.5t91.5 76t50 113t16 142.5v822h284v-822q0 -602 -577 -602q-578 0 -578 602zM440 1817v18h312l120 -279v-20h-262z" />
<glyph unicode="&#xda;" horiz-adv-x="1445" d="M145 571v822h285v-822q0 -165 70 -261.5t223 -96.5q78 0 135.5 26.5t91.5 76t50 113t16 142.5v822h284v-822q0 -602 -577 -602q-578 0 -578 602zM590 1536v20l121 279h311v-18l-170 -281h-262z" />
<glyph unicode="&#xdb;" horiz-adv-x="1445" d="M145 571v822h285v-822q0 -165 70 -261.5t223 -96.5q78 0 135.5 26.5t91.5 76t50 113t16 142.5v822h284v-822q0 -602 -577 -602q-578 0 -578 602zM365 1536v20l227 279h260l227 -279v-20h-229l-129 162l-127 -162h-229z" />
<glyph unicode="&#xdc;" horiz-adv-x="1445" d="M145 571v822h285v-822q0 -165 70 -261.5t223 -96.5q78 0 135.5 26.5t91.5 76t50 113t16 142.5v822h284v-822q0 -602 -577 -602q-578 0 -578 602zM293 1677q0 67 44.5 109.5t115.5 42.5q73 0 117 -42.5t44 -109.5t-44 -109t-117 -42q-72 0 -116 42.5t-44 108.5zM827 1677 q0 67 44.5 109.5t115.5 42.5q73 0 117.5 -42.5t44.5 -109.5t-44.5 -109t-117.5 -42q-72 0 -116 42.5t-44 108.5z" />
<glyph unicode="&#xdd;" horiz-adv-x="1236" d="M-6 1372v21h311l309 -574h4l310 574h311v-21l-479 -811v-561h-285v561zM477 1536v20l121 279h311v-18l-170 -281h-262z" />
<glyph unicode="&#xde;" horiz-adv-x="1234" d="M162 0v1393h284v-217h246q124 0 215.5 -34t146 -97t81 -145t26.5 -185t-27 -186t-82 -146t-146.5 -97t-213.5 -34h-246v-252h-284zM446 489h226q99 0 145.5 60.5t46.5 165.5q0 223 -192 223h-226v-449z" />
<glyph unicode="&#xdf;" horiz-adv-x="1286" d="M129 0v936q0 248 138 378t376 130q204 0 332.5 -104t128.5 -289q0 -211 -162 -283v-4q54 -19 100 -49.5t85 -74t61 -105.5t22 -136q0 -430 -536 -430q-80 0 -113 8v226q35 -6 113 -6q131 0 192.5 54t61.5 169q0 211 -273 211h-55v211h53q79 0 123.5 49t44.5 141 q0 87 -53.5 136t-151.5 49q-210 0 -210 -275v-942h-277z" />
<glyph unicode="&#xe0;" horiz-adv-x="1112" d="M66 281q0 167 114.5 245t372.5 78h133v45q0 43 -17 73.5t-45.5 44t-53.5 19t-52 5.5q-167 0 -328 -72l-65 211q195 88 407 88q211 0 317.5 -103.5t106.5 -296.5v-403q0 -24 5 -30.5t28 -6.5h72v-188q-81 -15 -143 -15q-77 0 -123.5 29t-73.5 88h-4q-57 -48 -145.5 -85.5 t-172.5 -37.5q-161 0 -247 86t-86 226zM283 1442v18h290l162 -278v-21h-241zM330 305q0 -119 131 -119q55 0 119 19t106 49v172h-104q-252 0 -252 -121z" />
<glyph unicode="&#xe1;" horiz-adv-x="1112" d="M66 281q0 167 114.5 245t372.5 78h133v45q0 43 -17 73.5t-45.5 44t-53.5 19t-52 5.5q-167 0 -328 -72l-65 211q195 88 407 88q211 0 317.5 -103.5t106.5 -296.5v-403q0 -24 5 -30.5t28 -6.5h72v-188q-81 -15 -143 -15q-77 0 -123.5 29t-73.5 88h-4q-57 -48 -145.5 -85.5 t-172.5 -37.5q-161 0 -247 86t-86 226zM330 305q0 -119 131 -119q55 0 119 19t106 49v172h-104q-252 0 -252 -121zM436 1161v21l162 278h291v-18l-211 -281h-242z" />
<glyph unicode="&#xe2;" horiz-adv-x="1112" d="M66 281q0 167 114.5 245t372.5 78h133v45q0 43 -17 73.5t-45.5 44t-53.5 19t-52 5.5q-167 0 -328 -72l-65 211q195 88 407 88q211 0 317.5 -103.5t106.5 -296.5v-403q0 -24 5 -30.5t28 -6.5h72v-188q-81 -15 -143 -15q-77 0 -123.5 29t-73.5 88h-4q-57 -48 -145.5 -85.5 t-172.5 -37.5q-161 0 -247 86t-86 226zM256 1161v21l186 278h301l187 -278v-21h-230l-108 142l-107 -142h-229zM330 305q0 -119 131 -119q55 0 119 19t106 49v172h-104q-252 0 -252 -121z" />
<glyph unicode="&#xe3;" horiz-adv-x="1112" d="M66 281q0 167 114.5 245t372.5 78h133v45q0 43 -17 73.5t-45.5 44t-53.5 19t-52 5.5q-167 0 -328 -72l-65 211q195 88 407 88q211 0 317.5 -103.5t106.5 -296.5v-403q0 -24 5 -30.5t28 -6.5h72v-188q-81 -15 -143 -15q-77 0 -123.5 29t-73.5 88h-4q-57 -48 -145.5 -85.5 t-172.5 -37.5q-161 0 -247 86t-86 226zM233 1325q33 59 92.5 97t125.5 38q55 0 108.5 -23t102.5 -46t94 -23q81 0 137 70l55 -140q-34 -64 -93.5 -100.5t-121.5 -36.5q-64 0 -163.5 46t-143.5 46q-78 0 -137 -71zM330 305q0 -119 131 -119q55 0 119 19t106 49v172h-104 q-252 0 -252 -121z" />
<glyph unicode="&#xe4;" horiz-adv-x="1112" d="M66 281q0 167 114.5 245t372.5 78h133v45q0 43 -17 73.5t-45.5 44t-53.5 19t-52 5.5q-167 0 -328 -72l-65 211q195 88 407 88q211 0 317.5 -103.5t106.5 -296.5v-403q0 -24 5 -30.5t28 -6.5h72v-188q-81 -15 -143 -15q-77 0 -123.5 29t-73.5 88h-4q-57 -48 -145.5 -85.5 t-172.5 -37.5q-161 0 -247 86t-86 226zM205 1311q0 66 44 108.5t116 42.5q73 0 117 -42t44 -109t-44 -109.5t-117 -42.5q-71 0 -115.5 42.5t-44.5 109.5zM330 305q0 -119 131 -119q55 0 119 19t106 49v172h-104q-252 0 -252 -121zM655 1311q0 66 44 108.5t116 42.5 q73 0 117.5 -42t44.5 -109t-44.5 -109.5t-117.5 -42.5q-71 0 -115.5 42.5t-44.5 109.5z" />
<glyph unicode="&#xe5;" horiz-adv-x="1112" d="M66 281q0 167 114.5 245t372.5 78h133v45q0 43 -17 73.5t-45.5 44t-53.5 19t-52 5.5q-167 0 -328 -72l-65 211q195 88 407 88q211 0 317.5 -103.5t106.5 -296.5v-403q0 -24 5 -30.5t28 -6.5h72v-188q-81 -15 -143 -15q-77 0 -123.5 29t-73.5 88h-4q-57 -48 -145.5 -85.5 t-172.5 -37.5q-161 0 -247 86t-86 226zM330 305q0 -119 131 -119q55 0 119 19t106 49v172h-104q-252 0 -252 -121zM344 1317q0 105 69 167t181 62q111 0 179.5 -62t68.5 -167q0 -107 -68 -169.5t-180 -62.5t-181 62.5t-69 169.5zM508 1317q0 -38 23.5 -59t62.5 -21t61.5 21 t22.5 59q0 37 -23 58.5t-61 21.5q-39 0 -62.5 -22t-23.5 -58z" />
<glyph unicode="&#xe6;" horiz-adv-x="1701" d="M66 281q0 319 442 319h184v49q0 30 -7.5 53t-18.5 37.5t-29.5 25t-32.5 15.5t-36.5 7.5t-33.5 3t-30 0.5q-153 0 -314 -72l-65 211q195 88 393 88q217 0 334 -133q130 133 326 133q93 0 169 -22t127.5 -61t86.5 -93.5t51 -116.5t16 -133q0 -96 -14 -178h-643 q11 -108 71 -166t170 -58q136 0 306 62l63 -199q-175 -84 -389 -84q-127 0 -217 45.5t-158 130.5q-36 -39 -68.5 -65.5t-81 -54.5t-113 -42t-142.5 -14q-161 0 -253.5 87t-92.5 225zM324 299q0 -57 33 -87t96 -30q97 0 170 67.5t73 172.5h-180q-192 0 -192 -123zM967 586 h407q2 10 2 30q0 201 -200 201q-98 0 -151 -66.5t-58 -164.5z" />
<glyph unicode="&#xe7;" horiz-adv-x="980" d="M78 494q0 238 138 381t386 143q149 0 307 -60l-55 -210q-136 43 -207 43q-58 0 -108.5 -16.5t-91 -51t-64 -93t-23.5 -136.5t23.5 -136.5t64 -93t91 -51t108.5 -16.5q71 0 207 43l55 -211q-129 -50 -272 -58l-27 -63q67 -11 104.5 -49.5t37.5 -100.5q0 -91 -63.5 -142.5 t-178.5 -51.5q-87 0 -154 24l29 129q50 -16 88 -16q72 0 72 51q0 55 -119 55l-8 13l61 162q-190 32 -295.5 169.5t-105.5 342.5z" />
<glyph unicode="&#xe8;" horiz-adv-x="1103" d="M76 496q0 143 55 260t169 189.5t269 72.5q116 0 206 -33.5t144.5 -93t82.5 -135t28 -164.5q0 -96 -14 -178h-660q8 -105 73 -164.5t175 -59.5q146 0 316 62l63 -199q-175 -84 -399 -84q-125 0 -223 41t-159.5 113.5t-93.5 167t-32 205.5zM285 1442v18h290l162 -278v-21 h-241zM356 586h420q2 10 2 30q0 91 -48.5 146t-158.5 55q-98 0 -154 -67t-61 -164z" />
<glyph unicode="&#xe9;" horiz-adv-x="1103" d="M76 496q0 143 55 260t169 189.5t269 72.5q116 0 206 -33.5t144.5 -93t82.5 -135t28 -164.5q0 -96 -14 -178h-660q8 -105 73 -164.5t175 -59.5q146 0 316 62l63 -199q-175 -84 -399 -84q-125 0 -223 41t-159.5 113.5t-93.5 167t-32 205.5zM356 586h420q2 10 2 30 q0 91 -48.5 146t-158.5 55q-98 0 -154 -67t-61 -164zM455 1161v21l161 278h291v-18l-211 -281h-241z" />
<glyph unicode="&#xea;" horiz-adv-x="1103" d="M76 496q0 143 55 260t169 189.5t269 72.5q116 0 206 -33.5t144.5 -93t82.5 -135t28 -164.5q0 -96 -14 -178h-660q8 -105 73 -164.5t175 -59.5q146 0 316 62l63 -199q-175 -84 -399 -84q-125 0 -223 41t-159.5 113.5t-93.5 167t-32 205.5zM244 1161v21l186 278h301 l187 -278v-21h-230l-108 142l-107 -142h-229zM356 586h420q2 10 2 30q0 91 -48.5 146t-158.5 55q-98 0 -154 -67t-61 -164z" />
<glyph unicode="&#xeb;" horiz-adv-x="1103" d="M76 496q0 143 55 260t169 189.5t269 72.5q116 0 206 -33.5t144.5 -93t82.5 -135t28 -164.5q0 -96 -14 -178h-660q8 -105 73 -164.5t175 -59.5q146 0 316 62l63 -199q-175 -84 -399 -84q-125 0 -223 41t-159.5 113.5t-93.5 167t-32 205.5zM195 1311q0 67 44 109t115 42 q73 0 117.5 -42t44.5 -109t-44.5 -109.5t-117.5 -42.5q-71 0 -115 42.5t-44 109.5zM356 586h420q2 10 2 30q0 91 -48.5 146t-158.5 55q-98 0 -154 -67t-61 -164zM645 1311q0 66 44 108.5t116 42.5q73 0 117.5 -42t44.5 -109t-44.5 -109.5t-117.5 -42.5q-71 0 -115.5 42.5 t-44.5 109.5z" />
<glyph unicode="&#xec;" horiz-adv-x="534" d="M-53 1442v18h291l161 -278v-21h-241zM129 0v987h277v-987h-277z" />
<glyph unicode="&#xed;" horiz-adv-x="534" d="M129 0v987h277v-987h-277zM137 1161v21l162 278h291v-18l-211 -281h-242z" />
<glyph unicode="&#xee;" horiz-adv-x="534" d="M-70 1161v21l187 278h301l186 -278v-21h-229l-109 142l-106 -142h-230zM129 0v987h277v-987h-277z" />
<glyph unicode="&#xef;" horiz-adv-x="534" d="M-119 1311q0 66 44 108.5t116 42.5q73 0 117.5 -42t44.5 -109t-44.5 -109.5t-117.5 -42.5q-71 0 -115.5 42.5t-44.5 109.5zM129 0v987h277v-987h-277zM332 1311q0 66 44 108.5t116 42.5q73 0 117 -42t44 -109t-44 -109.5t-117 -42.5q-71 0 -115.5 42.5t-44.5 109.5z" />
<glyph unicode="&#xf0;" horiz-adv-x="1214" d="M78 483q0 223 125 362.5t327 139.5q64 0 129 -20t107 -50l2 5q-71 134 -147 215l-238 -66l-43 148l170 47q-6 7 -40.5 45.5t-57 61.5t-43.5 42v21h272l82 -97l203 47l39 -147l-127 -35q122 -156 209.5 -342.5t87.5 -345.5q0 -160 -58.5 -281.5t-180 -192.5t-292.5 -71 q-127 0 -228 40t-165.5 110t-98.5 162.5t-34 201.5zM358 483q0 -135 62.5 -209.5t183.5 -74.5q125 0 187.5 74t62.5 210q0 133 -62 203t-188 70q-122 0 -184 -70.5t-62 -202.5z" />
<glyph unicode="&#xf1;" horiz-adv-x="1189" d="M129 0v987h221l37 -96h4q142 127 316 127q171 0 267.5 -107t96.5 -288v-623h-276v594q0 197 -177 197q-103 0 -212 -84v-707h-277zM242 1325q33 59 92 97t125 38q55 0 108.5 -23t102.5 -46t94 -23q81 0 137 70l55 -140q-34 -64 -93.5 -100.5t-121.5 -36.5 q-64 0 -163.5 46t-143.5 46q-78 0 -137 -71z" />
<glyph unicode="&#xf2;" horiz-adv-x="1193" d="M76 494q0 109 34.5 203.5t98.5 166t164 113t223 41.5q126 0 226.5 -41.5t164 -113.5t97.5 -166t34 -203t-34 -203.5t-97.5 -166.5t-164 -113.5t-226.5 -41.5q-123 0 -223 41.5t-164 113.5t-98.5 166.5t-34.5 203.5zM272 1442v18h291l162 -278v-21h-242zM358 494 q0 -145 64.5 -221t173.5 -76q112 0 176 75.5t64 221.5t-64 221.5t-176 75.5q-109 0 -173.5 -76t-64.5 -221z" />
<glyph unicode="&#xf3;" horiz-adv-x="1193" d="M76 494q0 109 34.5 203.5t98.5 166t164 113t223 41.5q126 0 226.5 -41.5t164 -113.5t97.5 -166t34 -203t-34 -203.5t-97.5 -166.5t-164 -113.5t-226.5 -41.5q-123 0 -223 41.5t-164 113.5t-98.5 166.5t-34.5 203.5zM358 494q0 -145 64.5 -221t173.5 -76q112 0 176 75.5 t64 221.5t-64 221.5t-176 75.5q-109 0 -173.5 -76t-64.5 -221zM473 1161v21l162 278h291v-18l-211 -281h-242z" />
<glyph unicode="&#xf4;" horiz-adv-x="1193" d="M76 494q0 109 34.5 203.5t98.5 166t164 113t223 41.5q126 0 226.5 -41.5t164 -113.5t97.5 -166t34 -203t-34 -203.5t-97.5 -166.5t-164 -113.5t-226.5 -41.5q-123 0 -223 41.5t-164 113.5t-98.5 166.5t-34.5 203.5zM258 1161v21l186 278h301l187 -278v-21h-230l-108 142 l-107 -142h-229zM358 494q0 -145 64.5 -221t173.5 -76q112 0 176 75.5t64 221.5t-64 221.5t-176 75.5q-109 0 -173.5 -76t-64.5 -221z" />
<glyph unicode="&#xf5;" horiz-adv-x="1193" d="M76 494q0 109 34.5 203.5t98.5 166t164 113t223 41.5q126 0 226.5 -41.5t164 -113.5t97.5 -166t34 -203t-34 -203.5t-97.5 -166.5t-164 -113.5t-226.5 -41.5q-123 0 -223 41.5t-164 113.5t-98.5 166.5t-34.5 203.5zM238 1325q33 59 92 97t125 38q55 0 108.5 -23 t102.5 -46t94 -23q81 0 137 70l55 -140q-34 -64 -93.5 -100.5t-121.5 -36.5q-64 0 -163.5 46t-143.5 46q-78 0 -137 -71zM358 494q0 -145 64.5 -221t173.5 -76q112 0 176 75.5t64 221.5t-64 221.5t-176 75.5q-109 0 -173.5 -76t-64.5 -221z" />
<glyph unicode="&#xf6;" horiz-adv-x="1193" d="M76 494q0 109 34.5 203.5t98.5 166t164 113t223 41.5q126 0 226.5 -41.5t164 -113.5t97.5 -166t34 -203t-34 -203.5t-97.5 -166.5t-164 -113.5t-226.5 -41.5q-123 0 -223 41.5t-164 113.5t-98.5 166.5t-34.5 203.5zM211 1311q0 66 44 108.5t116 42.5q73 0 117 -42 t44 -109t-44 -109.5t-117 -42.5q-71 0 -115.5 42.5t-44.5 109.5zM358 494q0 -145 64.5 -221t173.5 -76q112 0 176 75.5t64 221.5t-64 221.5t-176 75.5q-109 0 -173.5 -76t-64.5 -221zM662 1311q0 67 44 109t115 42q73 0 117.5 -42t44.5 -109t-44.5 -109.5t-117.5 -42.5 q-71 0 -115 42.5t-44 109.5z" />
<glyph unicode="&#xf7;" d="M82 451v211h1044v-211h-1044zM430 145q0 79 47.5 128t126.5 49t126.5 -49t47.5 -128t-47.5 -127.5t-126.5 -48.5t-126.5 48.5t-47.5 127.5zM430 977q0 79 47.5 127.5t126.5 48.5t126.5 -48.5t47.5 -127.5t-47.5 -127.5t-126.5 -48.5t-126.5 48.5t-47.5 127.5z" />
<glyph unicode="&#xf8;" horiz-adv-x="1193" d="M76 494q0 109 34.5 203.5t98.5 166t164 113t223 41.5q155 0 260 -57l72 90l141 -111l-72 -90q121 -145 121 -356q0 -109 -34 -203.5t-97.5 -166.5t-164 -113.5t-226.5 -41.5q-150 0 -264 60l-76 -99l-137 117l74 92q-117 140 -117 355zM344 483q0 -89 18 -139l357 440 q-54 23 -115 23q-122 0 -191 -82.5t-69 -241.5zM469 203q57 -23 119 -23q123 0 192.5 82.5t69.5 241.5q0 84 -21 143z" />
<glyph unicode="&#xf9;" horiz-adv-x="1177" d="M119 365v622h276v-594q0 -99 39.5 -147.5t128.5 -48.5q100 0 209 84v706h277v-987h-224l-37 96h-4q-143 -127 -307 -127q-173 0 -265.5 106.5t-92.5 289.5zM260 1442v18h291l162 -278v-21h-242z" />
<glyph unicode="&#xfa;" horiz-adv-x="1177" d="M119 365v622h276v-594q0 -99 39.5 -147.5t128.5 -48.5q100 0 209 84v706h277v-987h-224l-37 96h-4q-143 -127 -307 -127q-173 0 -265.5 106.5t-92.5 289.5zM469 1161v21l162 278h291v-18l-211 -281h-242z" />
<glyph unicode="&#xfb;" horiz-adv-x="1177" d="M119 365v622h276v-594q0 -99 39.5 -147.5t128.5 -48.5q100 0 209 84v706h277v-987h-224l-37 96h-4q-143 -127 -307 -127q-173 0 -265.5 106.5t-92.5 289.5zM248 1161v21l186 278h301l187 -278v-21h-230l-108 142l-107 -142h-229z" />
<glyph unicode="&#xfc;" horiz-adv-x="1177" d="M119 365v622h276v-594q0 -99 39.5 -147.5t128.5 -48.5q100 0 209 84v706h277v-987h-224l-37 96h-4q-143 -127 -307 -127q-173 0 -265.5 106.5t-92.5 289.5zM207 1311q0 66 44 108.5t116 42.5q73 0 117 -42t44 -109t-44 -109.5t-117 -42.5q-71 0 -115.5 42.5t-44.5 109.5z M657 1311q0 66 44 108.5t116 42.5q73 0 117.5 -42t44.5 -109t-44.5 -109.5t-117.5 -42.5q-71 0 -115.5 42.5t-44.5 109.5z" />
<glyph unicode="&#xfd;" horiz-adv-x="1085" d="M20 967v20h287l238 -672h6l225 672h287v-20l-424 -1088q-125 -315 -395 -315q-77 0 -162 18v219q59 -10 127 -10q67 0 106 25t62 84l41 110zM420 1161v21l162 278h290v-18l-210 -281h-242z" />
<glyph unicode="&#xfe;" horiz-adv-x="1200" d="M129 -406v1840h277v-519h4q41 30 70 47.5t88 36.5t122 19q139 0 238 -72t145.5 -188.5t46.5 -263.5t-47 -263.5t-146 -189t-237 -72.5q-46 0 -86 7.5t-76.5 25.5t-54 28t-51.5 34q-4 3 -6.5 4.5t-5.5 3.5h-4v-478h-277zM406 256q91 -59 198 -59q118 0 177 80t59 217 q0 138 -58.5 217.5t-177.5 79.5q-98 0 -198 -60v-475z" />
<glyph unicode="&#xff;" horiz-adv-x="1085" d="M20 967v20h287l238 -672h6l225 672h287v-20l-424 -1088q-125 -315 -395 -315q-77 0 -162 18v219q59 -10 127 -10q67 0 106 25t62 84l41 110zM162 1311q0 66 44 108.5t116 42.5q73 0 117 -42t44 -109t-44 -109.5t-117 -42.5q-71 0 -115.5 42.5t-44.5 109.5zM612 1311 q0 66 44 108.5t116 42.5q73 0 117.5 -42t44.5 -109t-44.5 -109.5t-117.5 -42.5q-71 0 -115.5 42.5t-44.5 109.5z" />
<glyph unicode="&#x152;" horiz-adv-x="2037" d="M96 696q0 155 40.5 285t120.5 230t210.5 156t300.5 56q127 0 229 -30h928v-238h-649v-334h582v-237h-582v-346h655v-238h-936q-117 -31 -227 -31q-170 0 -300.5 56t-210.5 156t-120.5 230t-40.5 285zM393 696q0 -106 20.5 -191.5t63.5 -152t116.5 -103t174.5 -36.5 q140 0 223 47v873q-86 47 -223 47q-101 0 -174.5 -36.5t-116.5 -103.5t-63.5 -152t-20.5 -192z" />
<glyph unicode="&#x153;" horiz-adv-x="1865" d="M76 494q0 109 34.5 203.5t98.5 166t164 113t223 41.5q217 0 379 -166q155 166 358 166q116 0 206 -33.5t144.5 -93t82.5 -135t28 -164.5q0 -96 -14 -178h-660q8 -105 73 -164.5t175 -59.5q145 0 315 62l64 -199q-175 -84 -399 -84q-216 0 -373 164q-160 -164 -379 -164 q-123 0 -223 41.5t-164 113.5t-98.5 166.5t-34.5 203.5zM358 494q0 -145 64.5 -221t173.5 -76q112 0 176 75.5t64 221.5t-64 221.5t-176 75.5q-109 0 -173.5 -76t-64.5 -221zM1120 586h420q2 10 2 30q0 91 -48.5 146t-158.5 55q-98 0 -154 -67t-61 -164z" />
<glyph unicode="&#x178;" horiz-adv-x="1236" d="M-6 1372v21h311l309 -574h4l310 574h311v-21l-479 -811v-561h-285v561zM190 1677q0 67 44.5 109.5t115.5 42.5q73 0 117.5 -42.5t44.5 -109.5t-44.5 -109t-117.5 -42q-72 0 -116 42.5t-44 108.5zM725 1677q0 67 44.5 109.5t115.5 42.5q73 0 117.5 -42.5t44.5 -109.5 t-44.5 -109t-117.5 -42q-72 0 -116 42.5t-44 108.5z" />
<glyph unicode="&#x2c6;" d="M266 1161v21l187 278h301l186 -278v-21h-229l-109 142l-106 -142h-230z" />
<glyph unicode="&#x2dc;" d="M246 1325q33 59 92 97t125 38q55 0 108.5 -23t102.5 -46t94 -23q81 0 137 70l56 -140q-34 -64 -94 -100.5t-122 -36.5q-64 0 -163.5 46t-143.5 46q-78 0 -137 -71z" />
<glyph unicode="&#x2000;" horiz-adv-x="918" />
<glyph unicode="&#x2001;" horiz-adv-x="1837" />
<glyph unicode="&#x2002;" horiz-adv-x="918" />
<glyph unicode="&#x2003;" horiz-adv-x="1837" />
<glyph unicode="&#x2004;" horiz-adv-x="612" />
<glyph unicode="&#x2005;" horiz-adv-x="459" />
<glyph unicode="&#x2006;" horiz-adv-x="306" />
<glyph unicode="&#x2007;" horiz-adv-x="306" />
<glyph unicode="&#x2008;" horiz-adv-x="229" />
<glyph unicode="&#x2009;" horiz-adv-x="367" />
<glyph unicode="&#x200a;" horiz-adv-x="102" />
<glyph unicode="&#x2010;" horiz-adv-x="847" d="M127 451v211h594v-211h-594z" />
<glyph unicode="&#x2011;" horiz-adv-x="847" d="M127 451v211h594v-211h-594z" />
<glyph unicode="&#x2012;" horiz-adv-x="847" d="M127 451v211h594v-211h-594z" />
<glyph unicode="&#x2013;" horiz-adv-x="1196" d="M127 451v211h942v-211h-942z" />
<glyph unicode="&#x2014;" horiz-adv-x="1884" d="M127 451v211h1630v-211h-1630z" />
<glyph unicode="&#x2018;" horiz-adv-x="573" d="M84 772v21l205 600h207v-21l-136 -600h-276z" />
<glyph unicode="&#x2019;" horiz-adv-x="567" d="M96 772v21l135 600h277v-21l-205 -600h-207z" />
<glyph unicode="&#x201a;" horiz-adv-x="552" d="M31 -309l135 600h276v-21l-204 -600h-207v21z" />
<glyph unicode="&#x201c;" horiz-adv-x="1001" d="M84 772v21l205 600h207v-21l-136 -600h-276zM512 772v21l205 600h207v-21l-136 -600h-276z" />
<glyph unicode="&#x201d;" horiz-adv-x="997" d="M96 772v21l135 600h277v-21l-205 -600h-207zM526 772v21l136 600h276v-21l-205 -600h-207z" />
<glyph unicode="&#x201e;" horiz-adv-x="983" d="M31 -309l135 600h276v-21l-204 -600h-207v21zM461 -309l135 600h276v-21l-204 -600h-207v21z" />
<glyph unicode="&#x2022;" horiz-adv-x="770" d="M154 596q0 104 63 168.5t168 64.5t168 -64.5t63 -168.5t-63 -169t-168 -65t-168 65t-63 169z" />
<glyph unicode="&#x2026;" horiz-adv-x="1587" d="M104 145q0 79 48 128t127 49t126.5 -49t47.5 -128t-47.5 -127.5t-126.5 -48.5t-127 49t-48 127zM621 145q0 79 47.5 128t126.5 49t126.5 -49t47.5 -128t-47.5 -127.5t-126.5 -48.5t-126.5 48.5t-47.5 127.5zM1135 145q0 79 47.5 128t126.5 49t126.5 -49t47.5 -128 t-47.5 -127.5t-126.5 -48.5t-126.5 48.5t-47.5 127.5z" />
<glyph unicode="&#x202f;" horiz-adv-x="367" />
<glyph unicode="&#x2039;" horiz-adv-x="657" d="M70 541v24l329 449l170 -101l-219 -362l221 -361l-172 -98z" />
<glyph unicode="&#x203a;" horiz-adv-x="659" d="M88 915l172 99l330 -449v-24l-330 -449l-170 101l219 362z" />
<glyph unicode="&#x205f;" horiz-adv-x="459" />
<glyph unicode="&#x20ac;" d="M33 418l63 207h70q-2 25 -2 71q0 45 2 72h-133l61 207h107q57 214 206 331t384 117q187 0 372 -90l-76 -225q-83 40 -149.5 56t-146.5 16q-99 0 -177.5 -53.5t-119.5 -151.5h540l-59 -207h-526q-3 -40 -3 -72q0 -34 3 -71h495l-59 -207h-389q44 -99 120 -152t175 -53 q80 0 146.5 16t149.5 56l76 -226q-185 -90 -372 -90q-234 0 -383.5 117.5t-206.5 331.5h-168z" />
<glyph unicode="&#x2122;" horiz-adv-x="1511" d="M111 1303v131h501v-131h-168v-443h-163v443h-170zM715 860v574h180l143 -293h2l150 293h178v-574h-166v352h-2l-92 -235h-135l-94 235h-2v-352h-162z" />
<glyph unicode="&#x25fc;" horiz-adv-x="983" d="M0 0v983h983v-983h-983z" />
<glyph unicode="&#xfb01;" horiz-adv-x="1316" d="M41 776v150l174 61v131q0 165 89 245.5t247 80.5q101 0 176 -14v-228q-73 15 -133 15q-57 0 -79.5 -22.5t-22.5 -88.5v-119h696v-987h-277v776h-419v-776h-277v776h-174zM891 1290q0 67 44.5 109.5t115.5 42.5q73 0 117 -42.5t44 -109.5t-44 -109t-117 -42 q-72 0 -116 42.5t-44 108.5z" />
<glyph unicode="&#xfb02;" horiz-adv-x="1376" d="M41 776v150l174 61v131q0 165 89 245.5t247 80.5q101 0 176 -14v-228q-73 15 -133 15q-57 0 -79.5 -22.5t-22.5 -88.5v-119h245v-211h-245v-776h-277v776h-174zM907 270v1164h277v-1213q0 -24 5 -30.5t28 -6.5h108v-188q-75 -14 -164 -14q-138 0 -196 68.5t-58 219.5z " />
</font>
</defs>
</svg>
