<?xml version="1.0" standalone="no"?>
<!DOCTYPE svg PUBLIC "-//W3C//DTD SVG 1.1//EN" "http://www.w3.org/Graphics/SVG/1.1/DTD/svg11.dtd" >
<svg xmlns="http://www.w3.org/2000/svg">
<metadata>
Created by FontPrep 20130207 at Mon Nov 17 10:50:18 2014
 By Christoph Koeberlin
Copyright (c) 2014 by Volkswagen AG. All rights reserved.
</metadata>
<defs>
<font id="194f5394ae2e9c74dc3c441b92862d1d" horiz-adv-x='1024' >
  <font-face 
    font-family="Font"
    font-weight="400"
    font-stretch="normal"
    units-per-em="1000"
    panose-1="2 11 5 3 4 2 0 0 0 3"
    ascent="800"
    descent="-200"
    x-height="482"
    cap-height="680"
    bbox="-202 -220 1076 921"
    underline-thickness="70"
    underline-position="-40"
    unicode-range="U+0020-FB02"
  />
<missing-glyph horiz-adv-x="513" 
d="M50 680h413v-680h-413v680zM405 58v564h-297v-564h297z" />
    <glyph glyph-name=".notdef" horiz-adv-x="513" 
d="M50 680h413v-680h-413v680zM405 58v564h-297v-564h297z" />
    <glyph glyph-name=".null" horiz-adv-x="0" 
 />
    <glyph glyph-name="nonmarkingreturn" horiz-adv-x="251" 
 />
    <glyph glyph-name="space" unicode=" " horiz-adv-x="251" 
 />
    <glyph glyph-name="exclam" unicode="!" horiz-adv-x="264" 
d="M161 210h-58l-17 299v171h92v-171zM69 50q0 29 17.5 47t46.5 18t46 -18t17 -47t-17 -47t-46 -18t-46.5 18t-17.5 47z" />
    <glyph glyph-name="quotedbl" unicode="&#x22;" horiz-adv-x="382" 
d="M296 404h-58l-17 176v100h92v-100zM144 404h-58l-17 176v100h92v-100z" />
    <glyph glyph-name="numbersign" unicode="#" horiz-adv-x="689" 
d="M91 0v10l45 163h-95v74h116l53 189h-97v74h118l48 170h83v-10l-45 -160h149l48 170h82v-10l-45 -160h97v-74h-118l-53 -189h99v-74h-120l-48 -173h-83v10l46 163h-149l-48 -173h-83zM243 247h149l53 189h-149z" />
    <glyph glyph-name="dollar" unicode="$" 
d="M114 132q32 -26 69.5 -41.5t83.5 -19.5v236l-21 8q-75 26 -116.5 71.5t-41.5 112.5q0 76 46.5 128.5t132.5 64.5v78h70v-77q46 -5 90.5 -21t71.5 -33l-37 -74q-29 17 -61 28t-64 15v-228q42 -16 74.5 -34.5t55.5 -41.5t35 -52.5t12 -66.5q0 -38 -12.5 -71t-36 -58.5
t-56 -43t-72.5 -23.5v-97h-70v94q-63 5 -111 26t-83 47zM181 506q0 -18 3.5 -33t13.5 -27.5t26.5 -23t42.5 -19.5v205q-45 -10 -65.5 -37t-20.5 -65zM421 179q0 41 -19.5 62.5t-64.5 41.5v-212q38 9 61 35t23 73z" />
    <glyph glyph-name="percent" unicode="%" horiz-adv-x="777" 
d="M116 509q0 -59 17.5 -87.5t51.5 -28.5t51.5 28.5t17.5 87.5q0 58 -17.5 87t-51.5 29q-33 0 -51 -29t-18 -87zM327 509q0 -38 -9 -70.5t-27 -56t-44.5 -37t-61.5 -13.5t-61.5 13.5t-44.5 37t-27 56t-9 70.5t9 70.5t27 56t44.5 37t61.5 13.5t61.5 -13.5t44.5 -37t27 -56
t9 -70.5zM523 169q0 -59 17.5 -87.5t51.5 -28.5t51.5 28.5t17.5 87.5q0 58 -17.5 87t-51.5 29q-33 0 -51 -29t-18 -87zM734 169q0 -38 -9 -70.5t-27 -56t-44.5 -37t-61.5 -13.5t-61.5 13.5t-44.5 37t-27 56t-9 70.5t9 70.5t27 56t44.5 37t61.5 13.5t61.5 -13.5t44.5 -37
t27 -56t9 -70.5zM129 0v10l447 670h76v-10l-447 -670h-76z" />
    <glyph glyph-name="ampersand" unicode="&#x26;" horiz-adv-x="699" 
d="M640 298q-26 -45 -51 -83.5t-51 -70.5l134 -134v-10h-105l-82 83q-49 -48 -103.5 -73t-120.5 -25q-51 0 -90 13.5t-65 37.5t-39.5 56.5t-13.5 70.5q0 34 12.5 62t32.5 50.5t44.5 39.5t47.5 30l24 14l-9 9q-35 35 -59 73.5t-24 81.5q0 33 12.5 64t36.5 55t58 38.5t78 14.5
q41 0 74.5 -14.5t57.5 -38.5t37.5 -55t13.5 -63q0 -28 -9 -51t-24 -41.5t-34 -33.5t-39 -27l-44 -27l141 -141q22 29 44 63t45 76zM264 70q88 0 163 72l-157 160l-25 -15q-45 -28 -71 -56t-26 -68q0 -41 29.5 -67t86.5 -26zM216 521q0 -23 12.5 -49.5t49.5 -63.5l7 -8l49 28
q29 17 45 40.5t16 52.5q0 36 -21.5 62.5t-66.5 26.5q-49 0 -70 -26t-21 -63z" />
    <glyph glyph-name="quotesingle" unicode="'" horiz-adv-x="230" 
d="M144 404h-58l-17 176v100h92v-100z" />
    <glyph glyph-name="parenleft" unicode="(" horiz-adv-x="285" 
d="M52 251q0 73 10 138t27 123t39.5 108.5t48.5 95.5l65 -30q-48 -100 -71.5 -209t-23.5 -227t23.5 -227t71.5 -209l-65 -30q-26 45 -48.5 95.5t-39.5 108.5t-27 123.5t-10 139.5v0z" />
    <glyph glyph-name="parenright" unicode=")" horiz-adv-x="285" 
d="M233 251q0 -74 -10 -139.5t-27 -123.5t-40 -108.5t-49 -95.5l-64 30q48 100 71.5 209t23.5 227t-23.5 227t-71.5 209l64 30q26 -45 49 -95.5t40 -108.5t27 -123t10 -138z" />
    <glyph glyph-name="asterisk" unicode="*" horiz-adv-x="427" 
d="M183 485l-91 -61l-35 61l96 50v2l-96 50l34 62l90 -61l2 1l-5 111h70l-7 -111l2 -1l91 61l35 -61l-96 -50v-2l96 -50l-34 -62l-93 62l-1 -1l7 -112h-70l6 111z" />
    <glyph glyph-name="plus" unicode="+" 
d="M332 307h201v-74h-201v-215h-77v215h-199v74h199v214h77v-214z" />
    <glyph glyph-name="comma" unicode="," horiz-adv-x="255" 
d="M41 -151l41 253h103v-10l-73 -253h-71v10z" />
    <glyph glyph-name="hyphen" unicode="-" horiz-adv-x="409" 
d="M72 233v74h265v-74h-265z" />
    <glyph glyph-name="period" unicode="." horiz-adv-x="254" 
d="M63 50q0 29 17.5 47t46.5 18t46.5 -18t17.5 -47t-17.5 -47t-46.5 -18t-46.5 18t-17.5 47z" />
    <glyph glyph-name="slash" unicode="/" horiz-adv-x="403" 
d="M31 0v10l259 670h82v-10l-258 -670h-83z" />
    <glyph glyph-name="zero" unicode="0" 
d="M132 340q0 -63 8 -113.5t27 -85t50.5 -53t78.5 -18.5t78 18.5t50 53t26.5 85t7.5 113.5t-7.5 113.5t-26.5 85t-50 53t-78 18.5t-78.5 -18.5t-50.5 -53t-27 -85t-8 -113.5zM553 340q0 -82 -14.5 -147.5t-45.5 -111.5t-79.5 -71t-117.5 -25t-118 25t-80.5 71t-46 111.5
t-14.5 147.5t14.5 147.5t46 111.5t80.5 71t118 25t117.5 -25t79.5 -71t45.5 -111.5t14.5 -147.5z" />
    <glyph glyph-name="one" unicode="1" 
d="M122 541v81l162 58h76v-597h141v-83h-389v83h156v500h-2l-131 -42h-13z" />
    <glyph glyph-name="two" unicode="2" 
d="M200 83h313v-83h-442v73l252 251q17 17 33 34.5t28 36.5t19.5 40.5t7.5 46.5q0 54 -35.5 91t-99.5 37q-59 0 -96 -18.5t-68 -45.5l-43 64q15 13 35 28t45 27.5t56.5 21t70.5 8.5q49 0 91 -15.5t73 -43t48.5 -67t17.5 -87.5q0 -33 -8 -61t-22.5 -52.5t-34 -47t-43.5 -45.5
l-198 -191v-2z" />
    <glyph glyph-name="three" unicode="3" 
d="M156 388h121q67 0 96.5 32.5t29.5 78.5t-31.5 78.5t-94.5 32.5q-47 0 -88.5 -9t-84.5 -26l-28 75q19 10 43.5 18.5t50.5 14.5t53.5 9t54.5 3q106 0 163 -51.5t57 -138.5q0 -28 -8.5 -52.5t-22 -44t-30.5 -34t-34 -21.5v-2q49 -19 80.5 -62.5t31.5 -106.5q0 -45 -18 -81
t-50.5 -62t-77.5 -40t-98 -14q-66 0 -120.5 14t-92.5 37l32 75q44 -22 87.5 -31.5t92.5 -9.5q31 0 58 7.5t47.5 22.5t32.5 37t12 51q0 24 -7 45.5t-24.5 37.5t-46 25t-71.5 9h-115v83z" />
    <glyph glyph-name="four" unicode="4" 
d="M364 480h92v-253h98v-83h-98v-144h-92v144h-336v70l208 466h93l-199 -451v-2h234v253z" />
    <glyph glyph-name="five" unicode="5" 
d="M108 339l42 341h341v-83h-267l-23 -181q14 1 32.5 1.5t37.5 0.5q54 0 99.5 -12t77.5 -37.5t50 -65.5t18 -96q0 -55 -19.5 -96.5t-54 -69.5t-83.5 -42t-107 -14q-22 0 -47.5 3.5t-51 9t-48.5 12.5t-41 15l24 80q81 -35 164 -35q38 0 69.5 7.5t53.5 24t34 42.5t12 63
q0 62 -37.5 94t-124.5 32q-32 0 -72 -1.5t-70 -3.5z" />
    <glyph glyph-name="six" unicode="6" 
d="M383 670l-168 -251l2 -2q14 11 43 19.5t62 8.5q49 0 89.5 -16.5t69.5 -46t45 -71.5t16 -93q0 -49 -16.5 -91.5t-47.5 -74t-76 -49.5t-103 -18q-59 0 -104 18t-76.5 49.5t-47.5 74t-16 91.5q0 48 15 95.5t40 87.5l174 279h99v-10zM447 218q0 69 -40.5 105.5t-107.5 36.5
q-69 0 -109 -36.5t-40 -105.5q0 -67 40 -107.5t109 -40.5q67 0 107.5 40.5t40.5 107.5z" />
    <glyph glyph-name="seven" unicode="7" 
d="M175 10l239 585v2h-337v83h437v-70l-242 -610h-97v10z" />
    <glyph glyph-name="eight" unicode="8" 
d="M295 70q78 0 114.5 34t36.5 88t-36.5 88t-114.5 34q-81 0 -116.5 -34t-35.5 -88t37 -88t115 -34zM295 695q57 0 98.5 -14.5t68.5 -40t40 -60.5t13 -75q0 -59 -27.5 -94t-60.5 -52v-2q49 -22 81.5 -65.5t32.5 -104.5q0 -44 -15.5 -81t-46 -64t-77 -42t-107.5 -15
q-62 0 -108 15t-77 42t-46.5 64t-15.5 81q0 61 33 104.5t82 65.5v2q-17 9 -32.5 21.5t-28.5 30.5t-20.5 41t-7.5 53q0 40 13 75t40 60.5t69 40t99 14.5zM295 397q62 0 93.5 27.5t31.5 78.5t-31.5 79t-93.5 28q-63 0 -94.5 -28t-31.5 -79t31.5 -78.5t94.5 -27.5z" />
    <glyph glyph-name="nine" unicode="9" 
d="M207 10l168 251l-2 2q-14 -11 -43 -19.5t-62 -8.5q-49 0 -89.5 16.5t-69.5 46t-45 71.5t-16 93q0 49 16.5 91.5t47.5 74t76 49.5t103 18t103.5 -18t77 -49.5t47.5 -74t16 -91.5q0 -48 -15 -96t-40 -87l-174 -279h-99v10zM143 462q0 -69 40.5 -105.5t107.5 -36.5
q69 0 109 36.5t40 105.5q0 67 -40 107.5t-109 40.5q-67 0 -107.5 -40.5t-40.5 -107.5z" />
    <glyph glyph-name="colon" unicode=":" horiz-adv-x="272" 
d="M72 432q0 29 17.5 47t46.5 18t46.5 -18t17.5 -47t-17.5 -47t-46.5 -18t-46.5 18t-17.5 47zM72 50q0 29 17.5 47t46.5 18t46.5 -18t17.5 -47t-17.5 -47t-46.5 -18t-46.5 18t-17.5 47z" />
    <glyph glyph-name="semicolon" unicode=";" horiz-adv-x="287" 
d="M52 -151l41 253h103v-10l-73 -253h-71v10zM89 432q0 29 17.5 47t46.5 18t46.5 -18t17.5 -47t-17.5 -47t-46.5 -18t-46.5 18t-17.5 47z" />
    <glyph glyph-name="less" unicode="&#x3c;" 
d="M512 25l-468 211v69l468 211h9v-84l-381 -160v-3l381 -160v-84h-9z" />
    <glyph glyph-name="equal" unicode="=" 
d="M76 343v74h437v-74h-437zM76 126v74h437v-74h-437z" />
    <glyph glyph-name="greater" unicode="&#x3e;" 
d="M68 25v84l381 160v3l-381 160v84h9l468 -211v-69l-468 -211h-9z" />
    <glyph glyph-name="question" unicode="?" horiz-adv-x="463" 
d="M175 210l-1 138q34 13 62 26.5t48 31.5t31 41t11 54q0 22 -7.5 41.5t-22 34.5t-35 24t-47.5 9q-42 0 -79 -16t-66 -38l-40 66q15 12 34.5 24.5t43.5 23.5t51 18t56 7q47 0 85.5 -13.5t65.5 -39t41.5 -61.5t14.5 -80q0 -40 -14.5 -71.5t-38 -56t-52.5 -42.5t-58 -31
l-12 -90h-71zM145 50q0 29 17.5 47t46.5 18t46 -18t17 -47t-17 -47t-46 -18t-46.5 18t-17.5 47z" />
    <glyph glyph-name="at" unicode="@" horiz-adv-x="882" 
d="M619 -100q-32 -15 -82.5 -27.5t-107.5 -12.5q-84 0 -153.5 28.5t-119 81.5t-76.5 127.5t-27 166.5q0 90 28 171.5t82 144t133.5 99t181.5 36.5q87 0 154.5 -29.5t114 -80t70.5 -117.5t24 -142t-18.5 -131t-48 -93t-67 -55.5t-74.5 -18.5q-42 0 -65.5 20t-34.5 44h-1
q-25 -19 -59.5 -35.5t-73.5 -16.5q-33 0 -60.5 11t-47.5 33t-31 55t-11 76q0 51 13 99.5t38.5 87t61.5 61.5t83 23q42 0 73 -15t53 -33h1l18 36h55l-48 -283q-3 -16 -3 -33t4.5 -31t14 -23t26.5 -9q22 0 44.5 13t41 41t30 72t11.5 106q0 60 -17.5 115t-53.5 96t-90.5 65.5
t-127.5 24.5q-81 0 -145.5 -31.5t-108.5 -84t-67.5 -122t-23.5 -145.5q0 -73 21 -135t59.5 -107t94 -70.5t124.5 -25.5q57 0 98 11t69 22zM549 401q-14 14 -39 23t-48 9q-30 0 -54 -17.5t-40.5 -45.5t-25.5 -64t-9 -73q0 -48 21 -74.5t62 -26.5q10 0 23.5 2.5t26.5 6.5
t25 10t20 12z" />
    <glyph glyph-name="A" unicode="A" horiz-adv-x="631" 
d="M619 0h-96l-61 170h-293l-62 -170h-95l257 680h93zM314 572l-115 -324h232l-115 324h-2z" />
    <glyph glyph-name="B" unicode="B" horiz-adv-x="625" 
d="M183 83h158q31 0 56.5 5.5t43 18t27 33t9.5 51.5q0 62 -36.5 85.5t-100.5 23.5h-157v-217zM314 680q114 0 171.5 -43t57.5 -132q0 -59 -26 -98.5t-63 -53.5v-2q55 -17 86.5 -58.5t31.5 -108.5q0 -86 -57.5 -135t-163.5 -49h-260v680h223zM183 383h124q34 0 60.5 4.5
t44.5 16.5t27 32.5t9 53.5t-8.5 53.5t-26 32.5t-44 16.5t-62.5 4.5h-124v-214z" />
    <glyph glyph-name="C" unicode="C" horiz-adv-x="598" 
d="M57 340q0 79 20.5 144.5t60 112.5t98 72.5t135.5 25.5q44 0 90 -11.5t91 -32.5l-25 -73q-43 19 -80.5 25.5t-75.5 6.5q-57 0 -98.5 -19t-68.5 -54t-39.5 -85t-12.5 -112t12.5 -112t39.5 -85t68.5 -54t98.5 -19q38 0 75.5 6.5t80.5 25.5l25 -73q-45 -21 -91 -32.5
t-90 -11.5q-77 0 -135.5 25.5t-98 72.5t-60 112t-20.5 145z" />
    <glyph glyph-name="D" unicode="D" horiz-adv-x="687" 
d="M91 680h188q94 0 160 -22t108 -65.5t61 -107t19 -145.5q0 -83 -19 -146t-61 -106.5t-108 -65.5t-160 -22h-188v680zM266 83q79 0 130.5 15t81.5 46.5t42 80t12 115.5t-12 115.5t-42 80t-81.5 46.5t-130.5 15h-83v-514h83z" />
    <glyph glyph-name="E" unicode="E" horiz-adv-x="586" 
d="M524 680v-83h-341v-209h309v-83h-309v-222h344v-83h-436v680h433z" />
    <glyph glyph-name="F" unicode="F" horiz-adv-x="567" 
d="M524 680v-83h-341v-224h309v-83h-309v-290h-92v680h433z" />
    <glyph glyph-name="G" unicode="G" horiz-adv-x="661" 
d="M593 339v-285q-42 -29 -104 -49t-127 -20q-80 0 -137 26.5t-94.5 73.5t-55 112.5t-17.5 142.5t17.5 142t55.5 112.5t97.5 74t142.5 26.5q70 0 124 -20t95 -43l-33 -73q-41 22 -90.5 36.5t-95.5 14.5q-59 0 -100 -18.5t-67.5 -53.5t-38.5 -85t-12 -113q0 -59 11 -108.5
t35.5 -85.5t64.5 -56t98 -20q41 0 76 6.5t63 23.5v156l-135 20v63h227z" />
    <glyph glyph-name="H" unicode="H" horiz-adv-x="703" 
d="M520 305h-337v-305h-92v680h92v-292h337v292h92v-680h-92v305z" />
    <glyph glyph-name="I" unicode="I" horiz-adv-x="274" 
d="M183 0h-92v680h92v-680z" />
    <glyph glyph-name="J" unicode="J" horiz-adv-x="464" 
d="M66 122q11 -9 22.5 -18.5t25 -17t30.5 -12t38 -4.5q24 0 43.5 8.5t33 27.5t20.5 47.5t7 69.5v457h92v-464q0 -114 -52.5 -172.5t-143.5 -58.5q-51 0 -92.5 22.5t-69.5 50.5z" />
    <glyph glyph-name="K" unicode="K" horiz-adv-x="601" 
d="M183 310v-310h-92v680h92v-334h2l279 334h107v-10l-287 -337l301 -323v-10h-113l-287 310h-2z" />
    <glyph glyph-name="L" unicode="L" horiz-adv-x="524" 
d="M183 680v-597h311v-83h-403v680h92z" />
    <glyph glyph-name="M" unicode="M" horiz-adv-x="827" 
d="M414 284l234 396h88v-680h-92v511h-2l-195 -340h-66l-196 340h-2v-511h-92v680h87l234 -396h2z" />
    <glyph glyph-name="N" unicode="N" horiz-adv-x="712" 
d="M529 145v535h92v-680h-95l-341 535h-2v-535h-92v680h94l342 -535h2z" />
    <glyph glyph-name="O" unicode="O" horiz-adv-x="719" 
d="M153 340q0 -57 10 -106.5t34 -85.5t64 -57t99 -21q60 0 99.5 21t63 57t33.5 85.5t10 106.5t-10 106.5t-33.5 85.5t-63 57t-99.5 21q-59 0 -99 -21t-64 -57t-34 -85.5t-10 -106.5zM661 340q0 -75 -17 -140t-53 -113t-93 -75t-138 -27t-138 27t-93.5 75t-53.5 113t-17 140
t17 140t53.5 113t93.5 75t138 27t138 -27t93 -75t53 -113t17 -140z" />
    <glyph glyph-name="P" unicode="P" horiz-adv-x="593" 
d="M91 0v680h241q57 0 98.5 -14.5t68.5 -41.5t40 -65.5t13 -87.5t-13.5 -87.5t-40.5 -65.5t-68.5 -41.5t-97.5 -14.5h-149v-262h-92zM183 345h141q71 0 102 34.5t31 91.5t-31 91.5t-102 34.5h-141v-252z" />
    <glyph glyph-name="Q" unicode="Q" horiz-adv-x="719" 
d="M661 340q0 -56 -9 -106.5t-28.5 -92.5t-49 -74.5t-71.5 -52.5l158 -78l-40 -80l-238 130q-5 -1 -11 -1h-12q-81 0 -138 27t-93.5 75t-53.5 113t-17 140t17 140t53.5 113t93.5 75t138 27t138 -27t93 -75t53 -113t17 -140zM153 340q0 -57 10 -106.5t34 -85.5t64 -57t99 -21
q60 0 99.5 21t63 57t33.5 85.5t10 106.5t-10 106.5t-33.5 85.5t-63 57t-99.5 21q-59 0 -99 -21t-64 -57t-34 -85.5t-10 -106.5z" />
    <glyph glyph-name="R" unicode="R" horiz-adv-x="642" 
d="M91 0v680h256q104 0 164 -49t60 -145q0 -81 -44 -128t-119 -61l204 -281v-16h-100l-207 292h-122v-292h-92zM342 375q65 0 99.5 28t34.5 83t-34.5 83t-99.5 28h-159v-222h159z" />
    <glyph glyph-name="S" unicode="S" horiz-adv-x="536" 
d="M87 132q18 -14 38 -25.5t42 -19.5t46.5 -12.5t51.5 -4.5q57 0 92 26t35 83q0 22 -6 39t-19 30t-34.5 23.5t-51.5 21.5l-62 22q-75 26 -116.5 71.5t-41.5 112.5q0 42 15 78t43.5 62.5t69.5 41t94 14.5q26 0 53 -5t52 -13t46.5 -18t37.5 -20l-37 -74q-36 20 -74.5 32.5
t-77.5 12.5q-64 0 -95.5 -29.5t-31.5 -74.5q0 -36 18.5 -60t71.5 -43l66 -23q42 -15 74.5 -33.5t55 -42t34 -53t11.5 -66.5q0 -44 -16 -80.5t-45 -63t-70 -41.5t-91 -15q-36 0 -67.5 6t-58.5 16.5t-50.5 24t-42.5 27.5z" />
    <glyph glyph-name="T" unicode="T" horiz-adv-x="553" 
d="M521 680v-83h-198v-597h-92v597h-199v83h489z" />
    <glyph glyph-name="U" unicode="U" horiz-adv-x="694" 
d="M176 680v-421q0 -43 10 -78t31 -59.5t53 -38t77 -13.5t77 13.5t52.5 38t30.5 59.5t10 78v421h92v-431q0 -61 -15.5 -109.5t-47.5 -83t-81.5 -53t-117.5 -18.5q-69 0 -118.5 18.5t-81.5 53t-47.5 83.5t-15.5 110v430h92z" />
    <glyph glyph-name="V" unicode="V" horiz-adv-x="628" 
d="M614 670l-254 -670h-93l-253 670v10h96l203 -569h2l202 569h97v-10z" />
    <glyph glyph-name="W" unicode="W" horiz-adv-x="977" 
d="M951 670l-196 -670h-94l-172 568h-2l-171 -568h-94l-197 670v10h96l149 -552h2l167 552h98l167 -552h2l149 552h96v-10z" />
    <glyph glyph-name="X" unicode="X" horiz-adv-x="588" 
d="M128 680l165 -277h2l166 277h99v-10l-208 -330l208 -330v-10h-99l-166 276h-2l-165 -276h-99v10l207 330l-207 330v10h99z" />
    <glyph glyph-name="Y" unicode="Y" horiz-adv-x="560" 
d="M108 680l171 -306h2l174 306h98v-10l-227 -383v-287h-92v287l-225 383v10h99z" />
    <glyph glyph-name="Z" unicode="Z" horiz-adv-x="552" 
d="M502 680v-74l-346 -521v-2h346v-83h-460v74l345 521v2h-327v83h442z" />
    <glyph glyph-name="bracketleft" unicode="[" horiz-adv-x="331" 
d="M294 700v-54l-120 -23v-744l120 -23v-54h-212v898h212z" />
    <glyph glyph-name="backslash" unicode="\" horiz-adv-x="403" 
d="M289 0l-258 670v10h83l258 -670v-10h-83z" />
    <glyph glyph-name="bracketright" unicode="]" horiz-adv-x="332" 
d="M250 700v-898h-213v54l121 23v744l-121 23v54h213z" />
    <glyph glyph-name="asciicircum" unicode="^" horiz-adv-x="506" 
d="M468 372h-83l-128 238h-4l-129 -238h-83v10l180 318h67l180 -318v-10z" />
    <glyph glyph-name="underscore" unicode="_" horiz-adv-x="493" 
d="M72 -94v74h349v-74h-349z" />
    <glyph glyph-name="grave" unicode="`" 
d="M214 710h98l64 -121v-10h-77l-85 121v10z" />
    <glyph glyph-name="a" unicode="a" horiz-adv-x="520" 
d="M283 218q-43 0 -71.5 -5.5t-46 -15.5t-25 -24.5t-7.5 -32.5q0 -39 21.5 -57.5t61.5 -18.5q34 0 69 11t61 30v113h-63zM361 43q-33 -27 -74 -42.5t-89 -15.5q-33 0 -62 10t-50 28.5t-33 46.5t-12 64q0 44 17 73.5t47.5 47.5t72 25.5t91.5 7.5h77v25q0 52 -25 78.5
t-83 26.5q-35 0 -72.5 -12.5t-65.5 -29.5l-34 68q32 23 77 38t97 15q94 0 145 -47.5t51 -138.5v-218q0 -13 4.5 -19.5t23.5 -6.5h27v-71q-11 -3 -23 -5.5t-26 -2.5q-35 0 -53 15t-26 40h-2z" />
    <glyph glyph-name="b" unicode="b" horiz-adv-x="573" 
d="M166 111q24 -21 59 -34t71 -13q38 0 64 14t41.5 38t22.5 56.5t7 68.5t-7 68.5t-22.5 56.5t-41.5 38t-64 14q-36 0 -71 -13t-59 -34v-260zM166 700v-252h2q26 19 61 34t91 15q53 0 91.5 -20.5t63 -55t36.5 -81.5t12 -99q0 -53 -12 -99.5t-36.5 -81t-63 -55t-91.5 -20.5
q-28 0 -52.5 5.5t-45.5 14.5t-38.5 19.5t-30.5 19.5h-2l-11 -44h-64v700h90z" />
    <glyph glyph-name="c" unicode="c" horiz-adv-x="481" 
d="M49 241q0 57 16 104t46 80.5t74 52.5t101 19q38 0 79 -10.5t72 -24.5l-23 -70q-22 9 -57 17.5t-70 8.5q-38 0 -65.5 -15t-45.5 -40t-26.5 -57t-8.5 -65t8.5 -65t26.5 -57t45.5 -40t65.5 -15q35 0 70 8.5t57 17.5l23 -70q-31 -14 -72 -24.5t-79 -10.5q-57 0 -101 19
t-74 52.5t-46 80.5t-16 104z" />
    <glyph glyph-name="d" unicode="d" horiz-adv-x="573" 
d="M407 371q-23 21 -58.5 34t-71.5 13q-38 0 -64 -14t-42 -38t-22.5 -56.5t-6.5 -68.5t6.5 -68.5t22.5 -56.5t42 -38t64 -14q36 0 71.5 13t58.5 34v260zM497 700v-700h-64l-10 44h-2q-13 -9 -30.5 -19.5t-39 -19.5t-46 -14.5t-52.5 -5.5q-53 0 -91.5 20.5t-63.5 55t-36.5 81
t-11.5 99.5q0 52 11.5 99t36.5 81.5t63.5 55t91.5 20.5q55 0 90.5 -15t61.5 -34h2v252h90z" />
    <glyph glyph-name="e" unicode="e" horiz-adv-x="537" 
d="M140 212q0 -33 11 -60.5t31 -47.5t48 -31t63 -11q50 0 84 13t60 30l35 -68q-32 -21 -78 -36.5t-109 -15.5q-62 0 -106.5 21t-73.5 56t-42.5 82t-13.5 99q0 49 14 95t42.5 81t71 56.5t99.5 21.5t97.5 -17.5t67 -46t38.5 -66.5t12 -78q0 -19 -2 -41.5t-4 -35.5h-345z
M403 284q1 5 1 10.5v10.5q0 25 -8.5 46t-24.5 36.5t-40 24t-55 8.5q-30 0 -54.5 -10t-42 -28t-27.5 -43t-12 -55h263z" />
    <glyph glyph-name="f" unicode="f" horiz-adv-x="363" 
d="M114 0v408h-86v54l86 20v66q0 83 39.5 120t114.5 37q15 0 34.5 -2t33.5 -4v-80q-11 2 -28.5 4.5t-31.5 2.5q-36 0 -54 -15t-18 -56v-73h132v-74h-132v-408h-90z" />
    <glyph glyph-name="g" unicode="g" horiz-adv-x="573" 
d="M407 371q-24 21 -59.5 34t-71.5 13q-38 0 -64 -13.5t-41.5 -37.5t-22 -56t-6.5 -68t6.5 -68t22 -56t41.5 -37.5t64 -13.5q36 0 71.5 13t59.5 34v256zM497 -2q0 -47 -15 -86t-43.5 -67t-69 -43t-92.5 -15t-95.5 10.5t-79.5 25.5l24 71q32 -13 71 -20.5t80 -7.5q60 0 95 29
t35 92v51h-2q-26 -19 -60.5 -34t-90.5 -15q-53 0 -91.5 20t-63.5 54.5t-37 80.5t-12 99q0 52 12 98.5t37 81t63.5 54.5t91.5 20q28 0 52.5 -5.5t45.5 -14.5t38 -19.5t29 -19.5h2l12 44h64v-484z" />
    <glyph glyph-name="h" unicode="h" horiz-adv-x="570" 
d="M409 0v295q0 62 -26.5 92.5t-81.5 30.5q-19 0 -38.5 -4.5t-38 -11.5t-33.5 -15.5t-25 -15.5v-371h-90v700h90v-252h2q11 7 27 16t36 16t43 12t49 5q81 0 128.5 -46.5t47.5 -137.5v-313h-90z" />
    <glyph glyph-name="i" unicode="i" horiz-adv-x="242" 
d="M76 0v482h90v-482h-90zM64 634q0 26 15.5 41t41.5 15q27 0 42.5 -15t15.5 -41t-15.5 -41.5t-42.5 -15.5q-26 0 -41.5 15.5t-15.5 41.5z" />
    <glyph glyph-name="j" unicode="j" horiz-adv-x="242" 
d="M166 482v-540q0 -74 -35.5 -114.5t-107.5 -40.5q-14 0 -34 2t-35 5v77q13 -2 30.5 -3.5t29.5 -1.5q32 0 47 16.5t15 56.5v543h90zM64 634q0 26 15.5 41t41.5 15q27 0 42.5 -15t15.5 -41t-15.5 -41.5t-42.5 -15.5q-26 0 -41.5 15.5t-15.5 41.5z" />
    <glyph glyph-name="k" unicode="k" horiz-adv-x="501" 
d="M166 223v-223h-90v700h90v-442h2l198 224h106v-7l-211 -232l219 -235v-8h-108l-204 223h-2z" />
    <glyph glyph-name="l" unicode="l" horiz-adv-x="265" 
d="M238 -4q-11 -3 -26.5 -5.5t-32.5 -2.5q-54 0 -78 29.5t-24 81.5v601h90v-607q0 -13 4.5 -19.5t23.5 -6.5h43v-71z" />
    <glyph glyph-name="m" unicode="m" horiz-adv-x="891" 
d="M137 482l11 -44h2q12 8 29.5 18t39.5 19t47.5 15.5t54.5 6.5q53 0 87 -16.5t55 -48.5h3q14 10 32 21t40 21t48 16.5t56 6.5q88 0 133 -46.5t45 -137.5v-313h-90v295q0 62 -23 92.5t-86 30.5q-38 0 -73 -18.5t-60 -38.5q2 -11 3.5 -23t1.5 -25v-313h-90v295q0 31 -4.5 54
t-16 38.5t-31.5 23t-51 7.5q-42 0 -76.5 -16.5t-57.5 -30.5v-371h-90v482h61z" />
    <glyph glyph-name="n" unicode="n" horiz-adv-x="570" 
d="M140 482l11 -44h2q11 8 29 18t40.5 19t48.5 15.5t52 6.5q81 0 128.5 -46.5t47.5 -137.5v-313h-90v295q0 62 -26.5 92.5t-81.5 30.5q-19 0 -38.5 -4.5t-38 -11.5t-33.5 -15.5t-25 -15.5v-371h-90v482h64z" />
    <glyph glyph-name="o" unicode="o" horiz-adv-x="574" 
d="M141 241q0 -37 7.5 -69.5t24.5 -56.5t44.5 -37.5t67.5 -13.5q41 0 69 13.5t45.5 37.5t25.5 56.5t8 69.5t-8 69.5t-25.5 56.5t-45.5 37.5t-69 13.5q-40 0 -67.5 -13.5t-44.5 -37.5t-24.5 -56.5t-7.5 -69.5zM525 241q0 -53 -13.5 -99.5t-42.5 -81t-74.5 -55t-109.5 -20.5
q-63 0 -108 20.5t-73.5 55t-41.5 81t-13 99.5q0 52 13 99t41.5 81.5t73.5 55t108 20.5q64 0 109.5 -20.5t74.5 -55t42.5 -81.5t13.5 -99z" />
    <glyph glyph-name="p" unicode="p" horiz-adv-x="573" 
d="M166 111q23 -21 59 -34t72 -13q38 0 64 14t41.5 38t22 56.5t6.5 68.5t-6.5 68.5t-22 56.5t-41.5 38t-64 14q-36 0 -72 -13t-59 -34v-260zM139 482l11 -44h2q26 19 69.5 39t99.5 20q53 0 91.5 -20.5t63 -55t36 -81.5t11.5 -99q0 -53 -11.5 -99.5t-36 -81t-63 -55
t-91.5 -20.5q-56 0 -91.5 15t-61.5 34h-2v-232h-90v680h63z" />
    <glyph glyph-name="q" unicode="q" horiz-adv-x="573" 
d="M407 371q-23 21 -59 34t-72 13q-38 0 -64 -14t-41.5 -38t-22 -56.5t-6.5 -68.5t6.5 -68.5t22 -56.5t41.5 -38t64 -14q36 0 72 13t59 34v260zM497 -198h-90v232h-2q-26 -19 -61.5 -34t-91.5 -15q-53 0 -91.5 20.5t-63 55t-36 81t-11.5 99.5q0 52 11.5 99t36 81.5t63 55
t91.5 20.5q28 0 53 -5.5t46.5 -14.5t39 -19.5t30.5 -19.5h2l11 44h63v-680z" />
    <glyph glyph-name="r" unicode="r" horiz-adv-x="358" 
d="M140 482l11 -52h2q12 15 26.5 27.5t31.5 21t36 13.5t40 5q14 0 28 -2t24 -5l-13 -81q-11 2 -24.5 3.5t-24.5 1.5q-47 0 -70.5 -19.5t-40.5 -50.5v-344h-90v482h64z" />
    <glyph glyph-name="s" unicode="s" horiz-adv-x="450" 
d="M75 103q31 -19 66 -30t76 -11q50 0 74.5 17.5t24.5 50.5q0 26 -17 41t-55 26l-58 16q-31 9 -56 20.5t-42 28t-26.5 38.5t-9.5 50q0 66 47.5 106.5t131.5 40.5q50 0 89 -9t76 -25l-28 -73q-32 15 -66 22.5t-66 7.5q-49 0 -71.5 -17.5t-22.5 -49.5q0 -24 15 -38t56 -25
l57 -15q31 -8 56 -20.5t43 -29.5t27.5 -40t9.5 -53q0 -33 -12.5 -60.5t-35.5 -46.5t-57 -29.5t-76 -10.5q-62 0 -103.5 12.5t-78.5 33.5l32 72v0z" />
    <glyph glyph-name="t" unicode="t" horiz-adv-x="365" 
d="M203 594v-112h129v-74h-129v-287q0 -30 14 -43.5t39 -13.5q20 0 42 4.5t33 7.5v-77q-14 -4 -39.5 -9t-55.5 -5q-60 0 -91.5 30.5t-31.5 88.5v304h-86v54l86 20v112h90z" />
    <glyph glyph-name="u" unicode="u" horiz-adv-x="563" 
d="M161 482v-295q0 -62 24 -92.5t80 -30.5q19 0 38 4.5t36.5 11.5t32.5 15.5t25 15.5v371h90v-482h-64l-11 44h-2q-11 -8 -29 -18t-39.5 -19t-47 -15.5t-51.5 -6.5q-81 0 -126.5 46.5t-45.5 137.5v313h90z" />
    <glyph glyph-name="v" unicode="v" horiz-adv-x="504" 
d="M483 472l-188 -472h-86l-188 472v10h90l140 -375h2l141 375h89v-10z" />
    <glyph glyph-name="w" unicode="w" horiz-adv-x="818" 
d="M792 472l-164 -472h-87l-131 374h-2l-131 -374h-87l-164 472v10h91l119 -365h2l125 365h92l126 -365h2l118 365h91v-10z" />
    <glyph glyph-name="x" unicode="x" horiz-adv-x="496" 
d="M247 187l-124 -187h-93v10l161 231l-161 231v10h93l124 -188h2l123 188h94v-10l-161 -231l161 -231v-10h-94l-123 187h-2z" />
    <glyph glyph-name="y" unicode="y" horiz-adv-x="505" 
d="M482 472l-202 -536q-29 -77 -69.5 -113t-97.5 -36q-20 0 -41.5 3.5t-35.5 6.5v76q15 -2 33.5 -4.5t35.5 -2.5q32 0 52 18t34 57l23 64l-194 467v10h90l143 -375h3l137 375h89v-10z" />
    <glyph glyph-name="z" unicode="z" horiz-adv-x="450" 
d="M403 482v-52l-249 -354v-2h249v-74h-363v52l249 354v2h-235v74h349z" />
    <glyph glyph-name="braceleft" unicode="{" horiz-adv-x="337" 
d="M37 289q39 0 58.5 16.5t19.5 56.5v188q0 34 6 61.5t24 47t50 30.5t84 11h19v-54q-29 0 -46.5 -5t-28 -16t-14 -29.5t-3.5 -46.5v-179q0 -52 -21 -79.5t-57 -38.5v-2q36 -11 57 -38.5t21 -79.5v-179q0 -28 3.5 -46.5t14 -30t28 -16t46.5 -4.5v-54h-19q-52 0 -84 11
t-50 30.5t-24 47t-6 61.5v188q0 40 -19.5 56.5t-58.5 16.5v76z" />
    <glyph glyph-name="bar" unicode="|" horiz-adv-x="236" 
d="M154 -198h-72v898h72v-898z" />
    <glyph glyph-name="braceright" unicode="}" horiz-adv-x="338" 
d="M301 213q-39 0 -58.5 -16.5t-19.5 -56.5v-188q0 -34 -6 -61.5t-24 -47t-50.5 -30.5t-84.5 -11h-19v54q29 0 47 4.5t28.5 16t14 30t3.5 46.5v179q0 52 21 79.5t56 38.5v2q-35 11 -56 38.5t-21 79.5v179q0 28 -3.5 46.5t-14 29.5t-28.5 16t-47 5v54h19q52 0 84.5 -11
t50.5 -30.5t24 -47t6 -61.5v-188q0 -40 19.5 -56.5t58.5 -16.5v-76z" />
    <glyph glyph-name="asciitilde" unicode="~" horiz-adv-x="532" 
d="M62 274q16 26 46.5 43t75.5 17q24 0 46 -8t43 -17.5t41 -17.5t41 -8q23 0 41.5 7.5t37.5 26.5l36 -50q-25 -33 -55.5 -45.5t-65.5 -12.5q-22 0 -44 8t-43 17.5t-41.5 17.5t-38.5 8q-20 0 -41.5 -6.5t-42.5 -28.5z" />
    <glyph glyph-name="uni00A0" unicode="&#xa0;" horiz-adv-x="251" 
 />
    <glyph glyph-name="exclamdown" unicode="&#xa1;" horiz-adv-x="247" 
d="M95 272h58l17 -299v-171h-92v171zM187 432q0 -29 -17.5 -47t-46.5 -18t-46 18t-17 47t17 47t46 18t46.5 -18t17.5 -47z" />
    <glyph glyph-name="cent" unicode="&#xa2;" 
d="M367 495q32 -3 64.5 -12.5t58.5 -20.5l-23 -70q-18 7 -44.5 14t-55.5 10v-351q29 3 55.5 10t44.5 15l23 -70q-26 -12 -58.5 -21t-64.5 -12v-83h-72v84q-47 7 -82.5 28t-60.5 54t-37.5 76.5t-12.5 94.5t12.5 94t37.5 76t60.5 54.5t82.5 28.5v84h72v-83zM194 241
q0 -28 6 -55t18.5 -50t31.5 -40.5t45 -25.5v341q-26 -8 -45 -25.5t-31.5 -40t-18.5 -49.5t-6 -55z" />
    <glyph glyph-name="sterling" unicode="&#xa3;" 
d="M251 296q3 -28 5 -52t2 -42q0 -45 -18.5 -73.5t-38.5 -43.5v-2h306v-83h-422v71q9 7 22 16.5t25.5 24t21.5 34t9 47.5q0 23 -2.5 49t-5.5 54h-80v74h71q-4 33 -6.5 66t-2.5 64q0 95 55 145t146 50q43 0 85.5 -12.5t85.5 -33.5l-26 -74q-43 19 -75.5 27t-69.5 8
q-22 0 -41 -6t-33.5 -19.5t-23 -34.5t-8.5 -51q0 -26 3 -59.5t7 -69.5h191v-74h-182z" />
    <glyph glyph-name="currency" unicode="&#xa4;" horiz-adv-x="599" 
d="M474 270q0 -27 -6 -52t-18 -48l98 -95l-53 -53l-94 93q-44 -30 -110 -30q-60 0 -99 24l-85 -85l-53 53l85 85q-14 23 -20.5 50.5t-6.5 57.5q0 61 27 106l-87 88l53 53l86 -87q41 25 100 25q68 0 111 -31l91 92l53 -53l-95 -94q23 -46 23 -99zM195 270q0 -45 24 -76.5
t72 -31.5q51 0 76 31.5t25 76.5t-25 76.5t-76 31.5q-48 0 -72 -31.5t-24 -76.5z" />
    <glyph glyph-name="yen" unicode="&#xa5;" 
d="M340 141v-141h-92v141h-181v74h181v92h-181v74h137l-166 289v10h99l156 -286h2l159 286h98v-10l-167 -289h137v-74h-182v-92h182v-74h-182z" />
    <glyph glyph-name="brokenbar" unicode="&#xa6;" horiz-adv-x="242" 
d="M157 134v-332h-72v332h72zM85 368v332h72v-332h-72z" />
    <glyph glyph-name="section" unicode="&#xa7;" horiz-adv-x="551" 
d="M222 363q-30 -14 -45 -37t-15 -52q0 -22 15 -43t54 -38l109 -46q26 14 42.5 36t16.5 53q0 26 -18 46.5t-50 34.5zM410 114q48 -29 65.5 -58.5t17.5 -67.5q0 -40 -14.5 -71t-43 -52.5t-69.5 -32.5t-93 -11q-71 0 -121 17t-96 43l40 82q37 -23 80.5 -40t96.5 -17
q56 0 90.5 17.5t34.5 61.5q0 26 -21.5 41.5t-66.5 34.5l-108 45q-67 28 -101 64t-34 87q0 48 24.5 82t60.5 54v3q-38 20 -61.5 50.5t-23.5 76.5q0 36 13.5 67.5t40.5 54.5t68.5 36.5t98.5 13.5q54 0 99.5 -11.5t86.5 -32.5l-36 -79q-38 18 -71.5 28t-78.5 10
q-63 0 -94.5 -22t-31.5 -57q0 -13 4.5 -23t15.5 -19t29 -18.5t45 -21.5l106 -47q56 -25 93.5 -61.5t37.5 -86.5q0 -26 -7.5 -46.5t-19.5 -37.5t-27 -30.5t-29 -23.5v-2z" />
    <glyph glyph-name="dieresis" unicode="&#xa8;" 
d="M137 634q0 26 15.5 41t41.5 15q27 0 42.5 -15t15.5 -41t-15.5 -41.5t-42.5 -15.5q-26 0 -41.5 15.5t-15.5 41.5zM336 634q0 26 15.5 41t41.5 15q27 0 42.5 -15t15.5 -41t-15.5 -41.5t-42.5 -15.5q-26 0 -41.5 15.5t-15.5 41.5z" />
    <glyph glyph-name="copyright" unicode="&#xa9;" horiz-adv-x="822" 
d="M56 340q0 75 27 140t75 113t113 75t140 27t140 -27t113 -75t75 -113t27 -140t-27 -140t-75 -113t-113 -75t-140 -27t-140 27t-113 75t-75 113t-27 140zM112 340q0 -64 22.5 -119.5t62.5 -96t95 -63.5t119 -23t119 23t95 63.5t62.5 96t22.5 119.5t-22.5 119.5t-62.5 96
t-95 63.5t-119 23t-119 -23t-95 -63.5t-62.5 -96t-22.5 -119.5zM227 340q0 88 47 141.5t138 53.5q26 0 54 -6t54 -18l-19 -56q-25 11 -45.5 15t-43.5 4q-55 0 -83.5 -36.5t-28.5 -97.5t28.5 -97.5t83.5 -36.5q23 0 43.5 4t45.5 15l19 -56q-26 -12 -54 -18t-54 -6
q-91 0 -138 53.5t-47 141.5z" />
    <glyph glyph-name="ordfeminine" unicode="&#xaa;" horiz-adv-x="426" 
d="M226 482q-45 0 -62.5 -10.5t-17.5 -30.5q0 -39 47 -39q20 0 39.5 6.5t34.5 16.5v57h-41zM286 350l-9 27h-1q-19 -14 -44.5 -25t-55.5 -11q-48 0 -76 25.5t-28 69.5q0 53 39.5 75.5t104.5 22.5h51v13q0 33 -17.5 42.5t-43.5 9.5q-24 0 -49.5 -6t-46.5 -17l-21 57
q23 13 54 21.5t66 8.5q64 0 98.5 -32t34.5 -90v-191h-56zM77 208v69h265v-69h-265z" />
    <glyph glyph-name="guillemotleft" unicode="&#xab;" horiz-adv-x="505" 
d="M43 276l155 209l58 -38l-122 -177l122 -177l-58 -38l-155 209v12zM240 276l155 209l58 -38l-122 -177l122 -177l-58 -38l-155 209v12z" />
    <glyph glyph-name="logicalnot" unicode="&#xac;" 
d="M458 233h-403v74h477v-201h-74v127z" />
    <glyph glyph-name="uni00AD" unicode="&#xad;" horiz-adv-x="409" 
d="M72 233v74h265v-74h-265z" />
    <glyph glyph-name="registered" unicode="&#xae;" horiz-adv-x="568" 
d="M56 561q0 49 17.5 90.5t48 72.5t72.5 48.5t90 17.5t90 -17.5t72.5 -48.5t48 -72.5t17.5 -90.5q0 -48 -17.5 -90t-48 -72.5t-72.5 -48t-90 -17.5t-90 17.5t-72.5 48t-48 72.5t-17.5 90zM103 561q0 -39 13.5 -72.5t38 -58t57.5 -38.5t72 -14t72 14t57.5 38.5t38 58
t13.5 72.5t-13.5 72.5t-38 58.5t-57.5 39t-72 14t-72 -14t-57.5 -39t-38 -58.5t-13.5 -72.5zM198 455v218h93q38 0 57.5 -17.5t19.5 -47.5q0 -25 -12 -42.5t-37 -22.5l63 -83v-5h-51l-61 85h-25v-85h-47zM284 580q19 0 28 5.5t9 22.5q0 15 -9 20t-28 5h-39v-53h39z" />
    <glyph glyph-name="macron" unicode="&#xaf;" 
d="M162 597v74h265v-74h-265z" />
    <glyph glyph-name="degree" unicode="&#xb0;" horiz-adv-x="426" 
d="M129 544q0 -38 23.5 -61.5t61.5 -23.5t61.5 23.5t23.5 61.5q0 37 -23.5 59.5t-61.5 22.5t-61.5 -22.5t-23.5 -59.5zM53 544q0 35 12 63t33 47.5t50.5 30t65.5 10.5q71 0 115 -40.5t44 -110.5q0 -71 -44 -112.5t-115 -41.5q-72 0 -116.5 41.5t-44.5 112.5z" />
    <glyph glyph-name="plusminus" unicode="&#xb1;" 
d="M332 427h201v-74h-201v-175h-77v175h-199v74h199v194h77v-194zM533 74v-74h-477v74h477z" />
    <glyph glyph-name="twosuperior" unicode="&#xb2;" horiz-adv-x="313" 
d="M133 522h145v-60h-246v51l134 117q17 14 26 29.5t9 34.5q0 29 -17 41t-39 12q-24 0 -42 -11.5t-34 -25.5l-38 48q8 7 19 16t25.5 16.5t33.5 12.5t42 5q25 0 47.5 -7.5t39.5 -21t26.5 -34t9.5 -45.5q0 -37 -17 -62t-39 -43l-85 -72v-1z" />
    <glyph glyph-name="threesuperior" unicode="&#xb3;" horiz-adv-x="313" 
d="M79 662h60q32 0 44.5 12t12.5 30q0 21 -13.5 32t-42.5 11q-20 0 -43.5 -4.5t-42.5 -12.5l-20 55q22 11 50.5 17t58.5 6q60 0 94 -25.5t34 -68.5q0 -32 -17.5 -51t-36.5 -24v-1q27 -9 44 -30t17 -55q0 -45 -35 -72t-105 -27q-37 0 -64 7.5t-49 18.5l19 57q20 -10 43.5 -16
t49.5 -6q30 0 49.5 10.5t19.5 36.5q0 22 -16.5 31t-50.5 9h-60v60z" />
    <glyph glyph-name="acute" unicode="&#xb4;" 
d="M376 700l-85 -121h-77v10l64 121h98v-10z" />
    <glyph glyph-name="mu" unicode="&#xb5;" horiz-adv-x="562" 
d="M80 -198v680h90v-320q0 -49 25 -73.5t79 -24.5q19 0 38 4.5t36.5 11.5t32.5 15.5t25 15.5v371h90v-482h-64l-11 44h-2q-11 -8 -29 -18t-39.5 -19t-47 -15.5t-51.5 -6.5q-23 0 -45.5 9t-36.5 27v-219h-90z" />
    <glyph glyph-name="paragraph" unicode="&#xb6;" horiz-adv-x="536" 
d="M170 416q-29 0 -54.5 8.5t-44.5 25t-30 41t-11 56.5t11 57t30 42t44.5 25.5t54.5 8.5h335v-70h-94v-808h-72v808h-96v-808h-73v614z" />
    <glyph glyph-name="periodcentered" unicode="&#xb7;" horiz-adv-x="264" 
d="M68 290q0 29 17.5 47t46.5 18t46.5 -18t17.5 -47t-17.5 -47t-46.5 -18t-46.5 18t-17.5 47z" />
    <glyph glyph-name="cedilla" unicode="&#xb8;" 
d="M246 -73l29 80h68l-23 -55q32 -5 51.5 -23t19.5 -49q0 -51 -33.5 -72t-84.5 -21q-24 0 -44 4.5t-31 9.5l14 55q10 -4 23.5 -7.5t29.5 -3.5q23 0 35.5 7.5t12.5 27.5q0 22 -17.5 29.5t-43.5 7.5z" />
    <glyph glyph-name="onesuperior" unicode="&#xb9;" horiz-adv-x="248" 
d="M22 681v63l122 56h52v-338h-71v261h-1l-93 -42h-9z" />
    <glyph glyph-name="ordmasculine" unicode="&#xba;" horiz-adv-x="437" 
d="M136 502q0 -47 20.5 -70t61.5 -23q42 0 63 23t21 70q0 46 -21 69t-63 23q-41 0 -61.5 -23t-20.5 -69zM379 502q0 -33 -9.5 -62.5t-29.5 -51t-50 -34.5t-72 -13q-41 0 -70.5 13t-49.5 34.5t-29.5 51t-9.5 62.5t9.5 62.5t29.5 51t49.5 34.5t70.5 13q42 0 72 -13t50 -34.5
t29.5 -51t9.5 -62.5zM86 208v69h265v-69h-265z" />
    <glyph glyph-name="guillemotright" unicode="&#xbb;" horiz-adv-x="505" 
d="M265 264l-155 -209l-58 38l122 177l-122 177l58 38l155 -209v-12zM462 264l-155 -209l-58 38l122 177l-122 177l58 38l155 -209v-12z" />
    <glyph glyph-name="onequarter" unicode="&#xbc;" horiz-adv-x="694" 
d="M74 0v10l447 670h76v-10l-447 -670h-76zM535 245h71v-114h41v-59h-41v-72h-71v72h-172v50l90 216h70l-84 -206v-1h96v114zM41 561v63l122 56h52v-338h-71v261h-1l-93 -42h-9z" />
    <glyph glyph-name="onehalf" unicode="&#xbd;" horiz-adv-x="708" 
d="M513 60h145v-60h-246v51l134 117q17 14 26 29.5t9 34.5q0 29 -17 41t-39 12q-24 0 -42 -11.5t-34 -25.5l-38 48q8 7 19 16t25.5 16.5t33.5 12.5t42 5q25 0 47.5 -7.5t39.5 -21t26.5 -34t9.5 -45.5q0 -37 -17 -62t-39 -43l-85 -72v-1zM74 0v10l447 670h76v-10l-447 -670
h-76zM41 561v63l122 56h52v-338h-71v261h-1l-93 -42h-9z" />
    <glyph glyph-name="threequarters" unicode="&#xbe;" horiz-adv-x="744" 
d="M124 0v10l447 670h76v-10l-447 -670h-76zM585 245h71v-114h41v-59h-41v-72h-71v72h-172v50l90 216h70l-84 -206v-1h96v114zM98 539h60q32 0 44.5 12t12.5 30q0 21 -13.5 32t-42.5 11q-20 0 -43.5 -4.5t-42.5 -12.5l-20 55q22 11 50.5 17t58.5 6q60 0 94 -25.5t34 -68.5
q0 -32 -17.5 -51t-36.5 -24v-1q27 -9 44 -30t17 -55q0 -45 -35 -72t-105 -27q-37 0 -64 7.5t-49 18.5l19 57q20 -10 43.5 -16t49.5 -6q30 0 49.5 10.5t19.5 36.5q0 22 -16.5 31t-50.5 9h-60v60z" />
    <glyph glyph-name="questiondown" unicode="&#xbf;" horiz-adv-x="457" 
d="M285 272l1 -138q-34 -13 -62 -26.5t-48 -31.5t-31 -41t-11 -54q0 -22 7.5 -41.5t22 -34.5t35 -24t47.5 -9q42 0 79 16t66 38l40 -66q-15 -12 -34.5 -24.5t-43.5 -23.5t-51 -18t-56 -7q-47 0 -85.5 13.5t-65.5 39t-41.5 61.5t-14.5 80q0 40 14.5 71.5t38 56t52.5 42.5
t58 31l12 90h71zM315 432q0 -29 -17.5 -47t-46.5 -18t-46 18t-17 47t17 47t46 18t46.5 -18t17.5 -47z" />
    <glyph glyph-name="Agrave" unicode="&#xc0;" horiz-adv-x="631" 
d="M619 0h-96l-61 170h-293l-62 -170h-95l257 680h93zM314 572l-115 -324h232l-115 324h-2zM209 883h98l54 -121v-10h-77l-75 121v10z" />
    <glyph glyph-name="Aacute" unicode="&#xc1;" horiz-adv-x="631" 
d="M619 0h-96l-61 170h-293l-62 -170h-95l257 680h93zM314 572l-115 -324h232l-115 324h-2zM424 873l-75 -121h-77v10l54 121h98v-10z" />
    <glyph glyph-name="Acircumflex" unicode="&#xc2;" horiz-adv-x="631" 
d="M619 0h-96l-61 170h-293l-62 -170h-95l257 680h93zM314 572l-115 -324h232l-115 324h-2zM460 762v-10h-82l-63 71l-63 -71h-82v10l94 121h102z" />
    <glyph glyph-name="Atilde" unicode="&#xc3;" horiz-adv-x="631" 
d="M619 0h-96l-61 170h-293l-62 -170h-95l257 680h93zM314 572l-115 -324h232l-115 324h-2zM162 817q14 20 36 38.5t54 18.5q16 0 33 -6.5t33.5 -14t32.5 -13.5t31 -6q17 0 31.5 9t27.5 26l27 -50q-18 -25 -39.5 -41t-50.5 -16q-17 0 -33 6t-32.5 13.5t-33 14t-32.5 6.5
t-31 -9.5t-27 -25.5z" />
    <glyph glyph-name="Adieresis" unicode="&#xc4;" horiz-adv-x="631" 
d="M619 0h-96l-61 170h-293l-62 -170h-95l257 680h93zM314 572l-115 -324h232l-115 324h-2zM148 816q0 26 15.5 41t41.5 15q27 0 42.5 -15t15.5 -41t-15.5 -41.5t-42.5 -15.5q-26 0 -41.5 15.5t-15.5 41.5zM367 816q0 26 15.5 41t41.5 15q27 0 42.5 -15t15.5 -41
t-15.5 -41.5t-42.5 -15.5q-26 0 -41.5 15.5t-15.5 41.5z" />
    <glyph glyph-name="Aring" unicode="&#xc5;" horiz-adv-x="631" 
d="M214 721q0 45 28.5 69t73.5 24t73 -24t28 -69q0 -27 -10.5 -47.5t-30.5 -31.5l243 -642h-96l-61 170h-293l-62 -170h-95l243 642q-20 12 -30.5 32t-10.5 47zM314 572l-115 -324h232l-115 324h-2zM273 721q0 -20 11.5 -30t31.5 -10t31.5 10t11.5 30t-11.5 29.5t-31.5 9.5
t-31.5 -9.5t-11.5 -29.5z" />
    <glyph glyph-name="AE" unicode="&#xc6;" horiz-adv-x="920" 
d="M-9 10l409 670h458v-83h-341v-209h309v-83h-309v-222h344v-83h-436v170h-234l-102 -170h-98v10zM423 568l-187 -320h189v320h-2z" />
    <glyph glyph-name="Ccedilla" unicode="&#xc7;" horiz-adv-x="599" 
d="M297 -73l22 62q-64 8 -112.5 37t-81.5 74.5t-50 106.5t-17 133q0 79 20.5 144.5t60 112.5t98 72.5t135.5 25.5q44 0 90 -11.5t91 -32.5l-25 -73q-43 19 -80.5 25.5t-75.5 6.5q-57 0 -98.5 -19t-68.5 -54t-39.5 -85t-12.5 -112t12.5 -112t39.5 -85t68.5 -54t98.5 -19
q38 0 75.5 6.5t80.5 25.5l25 -73q-42 -20 -84.5 -31t-83.5 -13l-14 -33q32 -5 51.5 -23t19.5 -49q0 -51 -33.5 -72t-84.5 -21q-24 0 -44 4.5t-31 9.5l14 55q10 -4 23.5 -7.5t29.5 -3.5q23 0 35.5 7.5t12.5 27.5q0 22 -17.5 29.5t-43.5 7.5z" />
    <glyph glyph-name="Egrave" unicode="&#xc8;" horiz-adv-x="586" 
d="M524 680v-83h-341v-209h309v-83h-309v-222h344v-83h-436v680h433zM201 883h98l54 -121v-10h-77l-75 121v10z" />
    <glyph glyph-name="Eacute" unicode="&#xc9;" horiz-adv-x="586" 
d="M524 680v-83h-341v-209h309v-83h-309v-222h344v-83h-436v680h433zM422 873l-75 -121h-77v10l54 121h98v-10z" />
    <glyph glyph-name="Ecircumflex" unicode="&#xca;" horiz-adv-x="586" 
d="M524 680v-83h-341v-209h309v-83h-309v-222h344v-83h-436v680h433zM461 762v-10h-82l-63 71l-63 -71h-82v10l94 121h102z" />
    <glyph glyph-name="Edieresis" unicode="&#xcb;" horiz-adv-x="586" 
d="M524 680v-83h-341v-209h309v-83h-309v-222h344v-83h-436v680h433zM140 816q0 26 15.5 41t41.5 15q27 0 42.5 -15t15.5 -41t-15.5 -41.5t-42.5 -15.5q-26 0 -41.5 15.5t-15.5 41.5zM359 816q0 26 15.5 41t41.5 15q27 0 42.5 -15t15.5 -41t-15.5 -41.5t-42.5 -15.5
q-26 0 -41.5 15.5t-15.5 41.5z" />
    <glyph glyph-name="Igrave" unicode="&#xcc;" horiz-adv-x="274" 
d="M183 0h-92v680h92v-680zM28 883h98l54 -121v-10h-77l-75 121v10z" />
    <glyph glyph-name="Iacute" unicode="&#xcd;" horiz-adv-x="274" 
d="M183 0h-92v680h92v-680zM251 873l-75 -121h-77v10l54 121h98v-10z" />
    <glyph glyph-name="Icircumflex" unicode="&#xce;" horiz-adv-x="274" 
d="M183 0h-92v680h92v-680zM280 762v-10h-82l-63 71l-63 -71h-82v10l94 121h102z" />
    <glyph glyph-name="Idieresis" unicode="&#xcf;" horiz-adv-x="274" 
d="M183 0h-92v680h92v-680zM-31 816q0 26 15.5 41t41.5 15q27 0 42.5 -15t15.5 -41t-15.5 -41.5t-42.5 -15.5q-26 0 -41.5 15.5t-15.5 41.5zM188 816q0 26 15.5 41t41.5 15q27 0 42.5 -15t15.5 -41t-15.5 -41.5t-42.5 -15.5q-26 0 -41.5 15.5t-15.5 41.5z" />
    <glyph glyph-name="Eth" unicode="&#xd0;" horiz-adv-x="688" 
d="M92 294h-49v83h49v303h188q94 0 160 -22t108 -65.5t61 -107t19 -145.5q0 -83 -19 -146t-61 -106.5t-108 -65.5t-160 -22h-188v294zM267 83q79 0 130.5 15t81.5 46.5t42 80t12 115.5t-12 115.5t-42 80t-81.5 46.5t-130.5 15h-83v-220h164v-83h-164v-211h83z" />
    <glyph glyph-name="Ntilde" unicode="&#xd1;" horiz-adv-x="712" 
d="M529 145v535h92v-680h-95l-341 535h-2v-535h-92v680h94l342 -535h2zM202 817q14 20 36 38.5t54 18.5q16 0 33 -6.5t33.5 -14t32.5 -13.5t31 -6q17 0 31.5 9t27.5 26l27 -50q-18 -25 -39.5 -41t-50.5 -16q-17 0 -33 6t-32.5 13.5t-33 14t-32.5 6.5t-31 -9.5t-27 -25.5z
" />
    <glyph glyph-name="Ograve" unicode="&#xd2;" horiz-adv-x="719" 
d="M153 340q0 -57 10 -106.5t34 -85.5t64 -57t99 -21q60 0 99.5 21t63 57t33.5 85.5t10 106.5t-10 106.5t-33.5 85.5t-63 57t-99.5 21q-59 0 -99 -21t-64 -57t-34 -85.5t-10 -106.5zM661 340q0 -75 -17 -140t-53 -113t-93 -75t-138 -27t-138 27t-93.5 75t-53.5 113t-17 140
t17 140t53.5 113t93.5 75t138 27t138 -27t93 -75t53 -113t17 -140zM258 883h98l54 -121v-10h-77l-75 121v10z" />
    <glyph glyph-name="Oacute" unicode="&#xd3;" horiz-adv-x="719" 
d="M153 340q0 -57 10 -106.5t34 -85.5t64 -57t99 -21q60 0 99.5 21t63 57t33.5 85.5t10 106.5t-10 106.5t-33.5 85.5t-63 57t-99.5 21q-59 0 -99 -21t-64 -57t-34 -85.5t-10 -106.5zM661 340q0 -75 -17 -140t-53 -113t-93 -75t-138 -27t-138 27t-93.5 75t-53.5 113t-17 140
t17 140t53.5 113t93.5 75t138 27t138 -27t93 -75t53 -113t17 -140zM472 873l-75 -121h-77v10l54 121h98v-10z" />
    <glyph glyph-name="Ocircumflex" unicode="&#xd4;" horiz-adv-x="719" 
d="M153 340q0 -57 10 -106.5t34 -85.5t64 -57t99 -21q60 0 99.5 21t63 57t33.5 85.5t10 106.5t-10 106.5t-33.5 85.5t-63 57t-99.5 21q-59 0 -99 -21t-64 -57t-34 -85.5t-10 -106.5zM661 340q0 -75 -17 -140t-53 -113t-93 -75t-138 -27t-138 27t-93.5 75t-53.5 113t-17 140
t17 140t53.5 113t93.5 75t138 27t138 -27t93 -75t53 -113t17 -140zM510 762v-10h-82l-63 71l-63 -71h-82v10l94 121h102z" />
    <glyph glyph-name="Otilde" unicode="&#xd5;" horiz-adv-x="719" 
d="M153 340q0 -57 10 -106.5t34 -85.5t64 -57t99 -21q60 0 99.5 21t63 57t33.5 85.5t10 106.5t-10 106.5t-33.5 85.5t-63 57t-99.5 21q-59 0 -99 -21t-64 -57t-34 -85.5t-10 -106.5zM661 340q0 -75 -17 -140t-53 -113t-93 -75t-138 -27t-138 27t-93.5 75t-53.5 113t-17 140
t17 140t53.5 113t93.5 75t138 27t138 -27t93 -75t53 -113t17 -140zM211 817q14 20 36 38.5t54 18.5q16 0 33 -6.5t33.5 -14t32.5 -13.5t31 -6q17 0 31.5 9t27.5 26l27 -50q-18 -25 -39.5 -41t-50.5 -16q-17 0 -33 6t-32.5 13.5t-33 14t-32.5 6.5t-31 -9.5t-27 -25.5z" />
    <glyph glyph-name="Odieresis" unicode="&#xd6;" horiz-adv-x="719" 
d="M153 340q0 -57 10 -106.5t34 -85.5t64 -57t99 -21q60 0 99.5 21t63 57t33.5 85.5t10 106.5t-10 106.5t-33.5 85.5t-63 57t-99.5 21q-59 0 -99 -21t-64 -57t-34 -85.5t-10 -106.5zM661 340q0 -75 -17 -140t-53 -113t-93 -75t-138 -27t-138 27t-93.5 75t-53.5 113t-17 140
t17 140t53.5 113t93.5 75t138 27t138 -27t93 -75t53 -113t17 -140zM197 816q0 26 15.5 41t41.5 15q27 0 42.5 -15t15.5 -41t-15.5 -41.5t-42.5 -15.5q-26 0 -41.5 15.5t-15.5 41.5zM416 816q0 26 15.5 41t41.5 15q27 0 42.5 -15t15.5 -41t-15.5 -41.5t-42.5 -15.5
q-26 0 -41.5 15.5t-15.5 41.5z" />
    <glyph glyph-name="multiply" unicode="&#xd7;" 
d="M294 321l165 165l52 -52l-165 -165l167 -166l-52 -52l-166 166l-164 -163l-52 52l163 163l-165 166l52 52z" />
    <glyph glyph-name="Oslash" unicode="&#xd8;" horiz-adv-x="719" 
d="M98 10l42 63q-43 49 -62.5 117.5t-19.5 149.5q0 75 17 140t53.5 113t93.5 75t138 27q51 0 92.5 -11.5t73.5 -31.5l39 57l57 -39l-43 -63q43 -48 62.5 -117t19.5 -150q0 -75 -17 -140t-53 -113t-93 -75t-138 -27q-52 0 -93.5 11t-74.5 32l-36 -55zM566 340q0 55 -9 103
t-32 84l-283 -425q23 -16 51.5 -24t66.5 -8q60 0 99.5 21t63 57t33.5 85.5t10 106.5zM153 340q0 -55 9 -102.5t31 -83.5l284 424q-22 15 -51 23.5t-66 8.5q-59 0 -99 -21t-64 -57t-34 -85.5t-10 -106.5z" />
    <glyph glyph-name="Ugrave" unicode="&#xd9;" horiz-adv-x="694" 
d="M176 680v-421q0 -43 10 -78t31 -59.5t53 -38t77 -13.5t77 13.5t52.5 38t30.5 59.5t10 78v421h92v-431q0 -61 -15.5 -109.5t-47.5 -83t-81.5 -53t-117.5 -18.5q-69 0 -118.5 18.5t-81.5 53t-47.5 83.5t-15.5 110v430h92zM236 883h98l54 -121v-10h-77l-75 121v10z" />
    <glyph glyph-name="Uacute" unicode="&#xda;" horiz-adv-x="694" 
d="M176 680v-421q0 -43 10 -78t31 -59.5t53 -38t77 -13.5t77 13.5t52.5 38t30.5 59.5t10 78v421h92v-431q0 -61 -15.5 -109.5t-47.5 -83t-81.5 -53t-117.5 -18.5q-69 0 -118.5 18.5t-81.5 53t-47.5 83.5t-15.5 110v430h92zM453 873l-75 -121h-77v10l54 121h98v-10z" />
    <glyph glyph-name="Ucircumflex" unicode="&#xdb;" horiz-adv-x="694" 
d="M176 680v-421q0 -43 10 -78t31 -59.5t53 -38t77 -13.5t77 13.5t52.5 38t30.5 59.5t10 78v421h92v-431q0 -61 -15.5 -109.5t-47.5 -83t-81.5 -53t-117.5 -18.5q-69 0 -118.5 18.5t-81.5 53t-47.5 83.5t-15.5 110v430h92zM490 762v-10h-82l-63 71l-63 -71h-82v10l94 121
h102z" />
    <glyph glyph-name="Udieresis" unicode="&#xdc;" horiz-adv-x="694" 
d="M176 680v-421q0 -43 10 -78t31 -59.5t53 -38t77 -13.5t77 13.5t52.5 38t30.5 59.5t10 78v421h92v-431q0 -61 -15.5 -109.5t-47.5 -83t-81.5 -53t-117.5 -18.5q-69 0 -118.5 18.5t-81.5 53t-47.5 83.5t-15.5 110v430h92zM178 816q0 26 15.5 41t41.5 15q27 0 42.5 -15
t15.5 -41t-15.5 -41.5t-42.5 -15.5q-26 0 -41.5 15.5t-15.5 41.5zM397 816q0 26 15.5 41t41.5 15q27 0 42.5 -15t15.5 -41t-15.5 -41.5t-42.5 -15.5q-26 0 -41.5 15.5t-15.5 41.5z" />
    <glyph glyph-name="Yacute" unicode="&#xdd;" horiz-adv-x="560" 
d="M108 680l171 -306h2l174 306h98v-10l-227 -383v-287h-92v287l-225 383v10h99zM392 873l-75 -121h-77v10l54 121h98v-10z" />
    <glyph glyph-name="Thorn" unicode="&#xde;" horiz-adv-x="599" 
d="M91 0v680h92v-123h149q57 0 98.5 -14.5t68.5 -41.5t40 -65.5t13 -87.5t-13.5 -87.5t-40.5 -65.5t-68.5 -41.5t-97.5 -14.5h-149v-139h-92zM183 222h141q71 0 102 34.5t31 91.5t-31 91.5t-102 34.5h-141v-252z" />
    <glyph glyph-name="germandbls" unicode="&#xdf;" horiz-adv-x="600" 
d="M76 475q0 57 15.5 100t43 72t66 43.5t85.5 14.5q49 0 88 -15t66 -41t41.5 -60.5t14.5 -73.5q0 -31 -8 -53t-20.5 -38t-28 -27t-31.5 -19v-2q25 -7 51 -21t47 -36t34 -52t13 -69q0 -54 -17 -94.5t-48.5 -66.5t-75 -39t-97.5 -13q-14 0 -28 0.5t-22 2.5v78q11 -1 23 -1.5
t27 -0.5q70 0 108 32t38 102q0 59 -37 96.5t-120 37.5h-16v74h21q50 0 72.5 27.5t22.5 75.5q0 50 -29 83.5t-86 33.5q-63 0 -92 -37.5t-29 -120.5v-468h-92v475z" />
    <glyph glyph-name="agrave" unicode="&#xe0;" horiz-adv-x="520" 
d="M283 218q-43 0 -71.5 -5.5t-46 -15.5t-25 -24.5t-7.5 -32.5q0 -39 21.5 -57.5t61.5 -18.5q34 0 69 11t61 30v113h-63zM361 43q-33 -27 -74 -42.5t-89 -15.5q-33 0 -62 10t-50 28.5t-33 46.5t-12 64q0 44 17 73.5t47.5 47.5t72 25.5t91.5 7.5h77v25q0 52 -25 78.5
t-83 26.5q-35 0 -72.5 -12.5t-65.5 -29.5l-34 68q32 23 77 38t97 15q94 0 145 -47.5t51 -138.5v-218q0 -13 4.5 -19.5t23.5 -6.5h27v-71q-11 -3 -23 -5.5t-26 -2.5q-35 0 -53 15t-26 40h-2zM156 710h98l64 -121v-10h-77l-85 121v10z" />
    <glyph glyph-name="aacute" unicode="&#xe1;" horiz-adv-x="520" 
d="M283 218q-43 0 -71.5 -5.5t-46 -15.5t-25 -24.5t-7.5 -32.5q0 -39 21.5 -57.5t61.5 -18.5q34 0 69 11t61 30v113h-63zM361 43q-33 -27 -74 -42.5t-89 -15.5q-33 0 -62 10t-50 28.5t-33 46.5t-12 64q0 44 17 73.5t47.5 47.5t72 25.5t91.5 7.5h77v25q0 52 -25 78.5
t-83 26.5q-35 0 -72.5 -12.5t-65.5 -29.5l-34 68q32 23 77 38t97 15q94 0 145 -47.5t51 -138.5v-218q0 -13 4.5 -19.5t23.5 -6.5h27v-71q-11 -3 -23 -5.5t-26 -2.5q-35 0 -53 15t-26 40h-2zM396 700l-85 -121h-77v10l64 121h98v-10z" />
    <glyph glyph-name="acircumflex" unicode="&#xe2;" horiz-adv-x="520" 
d="M283 218q-43 0 -71.5 -5.5t-46 -15.5t-25 -24.5t-7.5 -32.5q0 -39 21.5 -57.5t61.5 -18.5q34 0 69 11t61 30v113h-63zM361 43q-33 -27 -74 -42.5t-89 -15.5q-33 0 -62 10t-50 28.5t-33 46.5t-12 64q0 44 17 73.5t47.5 47.5t72 25.5t91.5 7.5h77v25q0 52 -25 78.5
t-83 26.5q-35 0 -72.5 -12.5t-65.5 -29.5l-34 68q32 23 77 38t97 15q94 0 145 -47.5t51 -138.5v-218q0 -13 4.5 -19.5t23.5 -6.5h27v-71q-11 -3 -23 -5.5t-26 -2.5q-35 0 -53 15t-26 40h-2zM416 589v-10h-82l-63 74l-63 -74h-82v10l94 121h102z" />
    <glyph glyph-name="atilde" unicode="&#xe3;" horiz-adv-x="520" 
d="M283 218q-43 0 -71.5 -5.5t-46 -15.5t-25 -24.5t-7.5 -32.5q0 -39 21.5 -57.5t61.5 -18.5q34 0 69 11t61 30v113h-63zM361 43q-33 -27 -74 -42.5t-89 -15.5q-33 0 -62 10t-50 28.5t-33 46.5t-12 64q0 44 17 73.5t47.5 47.5t72 25.5t91.5 7.5h77v25q0 52 -25 78.5
t-83 26.5q-35 0 -72.5 -12.5t-65.5 -29.5l-34 68q32 23 77 38t97 15q94 0 145 -47.5t51 -138.5v-218q0 -13 4.5 -19.5t23.5 -6.5h27v-71q-11 -3 -23 -5.5t-26 -2.5q-35 0 -53 15t-26 40h-2zM118 634q14 20 36 38.5t54 18.5q16 0 33 -6.5t33.5 -14t32.5 -13.5t31 -6
q17 0 31.5 9t27.5 26l27 -50q-18 -25 -39.5 -41t-50.5 -16q-17 0 -33 6t-32.5 13.5t-33 14t-32.5 6.5t-31 -9.5t-27 -25.5z" />
    <glyph glyph-name="adieresis" unicode="&#xe4;" horiz-adv-x="520" 
d="M283 218q-43 0 -71.5 -5.5t-46 -15.5t-25 -24.5t-7.5 -32.5q0 -39 21.5 -57.5t61.5 -18.5q34 0 69 11t61 30v113h-63zM361 43q-33 -27 -74 -42.5t-89 -15.5q-33 0 -62 10t-50 28.5t-33 46.5t-12 64q0 44 17 73.5t47.5 47.5t72 25.5t91.5 7.5h77v25q0 52 -25 78.5
t-83 26.5q-35 0 -72.5 -12.5t-65.5 -29.5l-34 68q32 23 77 38t97 15q94 0 145 -47.5t51 -138.5v-218q0 -13 4.5 -19.5t23.5 -6.5h27v-71q-11 -3 -23 -5.5t-26 -2.5q-35 0 -53 15t-26 40h-2zM119 634q0 26 15.5 41t41.5 15q27 0 42.5 -15t15.5 -41t-15.5 -41.5t-42.5 -15.5
q-26 0 -41.5 15.5t-15.5 41.5zM318 634q0 26 15.5 41t41.5 15q27 0 42.5 -15t15.5 -41t-15.5 -41.5t-42.5 -15.5q-26 0 -41.5 15.5t-15.5 41.5z" />
    <glyph glyph-name="aring" unicode="&#xe5;" horiz-adv-x="520" 
d="M283 218q-43 0 -71.5 -5.5t-46 -15.5t-25 -24.5t-7.5 -32.5q0 -39 21.5 -57.5t61.5 -18.5q34 0 69 11t61 30v113h-63zM361 43q-33 -27 -74 -42.5t-89 -15.5q-33 0 -62 10t-50 28.5t-33 46.5t-12 64q0 44 17 73.5t47.5 47.5t72 25.5t91.5 7.5h77v25q0 52 -25 78.5
t-83 26.5q-35 0 -72.5 -12.5t-65.5 -29.5l-34 68q32 23 77 38t97 15q94 0 145 -47.5t51 -138.5v-218q0 -13 4.5 -19.5t23.5 -6.5h27v-71q-11 -3 -23 -5.5t-26 -2.5q-35 0 -53 15t-26 40h-2zM229 638q0 -20 11.5 -30t31.5 -10t31.5 10t11.5 30t-11.5 29.5t-31.5 9.5
t-31.5 -9.5t-11.5 -29.5zM170 638q0 45 28.5 69t73.5 24t73 -24t28 -69t-28 -69.5t-73 -24.5t-73.5 24.5t-28.5 69.5z" />
    <glyph glyph-name="ae" unicode="&#xe6;" horiz-adv-x="823" 
d="M443 212q0 -66 37 -107.5t107 -41.5q49 0 79.5 13t56.5 30l35 -69q-32 -21 -74 -36.5t-105 -15.5q-65 0 -109 29t-72 74q-15 -23 -34.5 -41.5t-44.5 -32.5t-55 -21.5t-66 -7.5q-33 0 -62 10t-50 28.5t-33 46.5t-12 64q0 44 16.5 73t45.5 46.5t70 25t90 7.5h92v27
q0 26 -7.5 45.5t-22 33t-36 20t-50.5 6.5q-35 0 -72.5 -12t-65.5 -29l-33 67q32 23 76.5 38t96.5 15q58 0 102.5 -19t67.5 -54q23 27 64.5 50t97.5 23q57 0 96 -17.5t63 -46t34.5 -66.5t10.5 -78q0 -19 -2 -41.5t-4 -35.5h-328zM689 284q1 5 1 10.5v10.5q0 25 -6.5 46
t-21 36.5t-36.5 24t-53 8.5q-30 0 -53.5 -10t-40 -28t-25.5 -43t-11 -55h246zM277 212q-43 0 -71.5 -4.5t-46 -13.5t-24.5 -22.5t-7 -31.5q0 -39 24 -57.5t64 -18.5q24 0 48.5 9t45 27.5t33.5 46.5t13 65h-79z" />
    <glyph glyph-name="ccedilla" unicode="&#xe7;" horiz-adv-x="482" 
d="M217 -73l22 62q-45 7 -80.5 28.5t-59.5 54.5t-36.5 75.5t-12.5 93.5q0 57 16 104t46 80.5t74 52.5t101 19q38 0 79 -10.5t72 -24.5l-23 -70q-22 9 -57 17.5t-70 8.5q-38 0 -65.5 -15t-45.5 -40t-26.5 -57t-8.5 -65t8.5 -65t26.5 -57t45.5 -40t65.5 -15q35 0 70 8.5
t57 17.5l23 -70q-28 -13 -63 -22.5t-70 -11.5l-14 -34q32 -5 51.5 -23t19.5 -49q0 -51 -33.5 -72t-84.5 -21q-24 0 -44 4.5t-31 9.5l14 55q10 -4 23.5 -7.5t29.5 -3.5q23 0 35.5 7.5t12.5 27.5q0 22 -17.5 29.5t-43.5 7.5z" />
    <glyph glyph-name="egrave" unicode="&#xe8;" horiz-adv-x="537" 
d="M140 212q0 -33 11 -60.5t31 -47.5t48 -31t63 -11q50 0 84 13t60 30l35 -68q-32 -21 -78 -36.5t-109 -15.5q-62 0 -106.5 21t-73.5 56t-42.5 82t-13.5 99q0 49 14 95t42.5 81t71 56.5t99.5 21.5t97.5 -17.5t67 -46t38.5 -66.5t12 -78q0 -19 -2 -41.5t-4 -35.5h-345z
M403 284q1 5 1 10.5v10.5q0 25 -8.5 46t-24.5 36.5t-40 24t-55 8.5q-30 0 -54.5 -10t-42 -28t-27.5 -43t-12 -55h263zM170 710h98l64 -121v-10h-77l-85 121v10z" />
    <glyph glyph-name="eacute" unicode="&#xe9;" horiz-adv-x="537" 
d="M140 212q0 -33 11 -60.5t31 -47.5t48 -31t63 -11q50 0 84 13t60 30l35 -68q-32 -21 -78 -36.5t-109 -15.5q-62 0 -106.5 21t-73.5 56t-42.5 82t-13.5 99q0 49 14 95t42.5 81t71 56.5t99.5 21.5t97.5 -17.5t67 -46t38.5 -66.5t12 -78q0 -19 -2 -41.5t-4 -35.5h-345z
M403 284q1 5 1 10.5v10.5q0 25 -8.5 46t-24.5 36.5t-40 24t-55 8.5q-30 0 -54.5 -10t-42 -28t-27.5 -43t-12 -55h263zM405 700l-85 -121h-77v10l64 121h98v-10z" />
    <glyph glyph-name="ecircumflex" unicode="&#xea;" horiz-adv-x="537" 
d="M140 212q0 -33 11 -60.5t31 -47.5t48 -31t63 -11q50 0 84 13t60 30l35 -68q-32 -21 -78 -36.5t-109 -15.5q-62 0 -106.5 21t-73.5 56t-42.5 82t-13.5 99q0 49 14 95t42.5 81t71 56.5t99.5 21.5t97.5 -17.5t67 -46t38.5 -66.5t12 -78q0 -19 -2 -41.5t-4 -35.5h-345z
M403 284q1 5 1 10.5v10.5q0 25 -8.5 46t-24.5 36.5t-40 24t-55 8.5q-30 0 -54.5 -10t-42 -28t-27.5 -43t-12 -55h263zM428 589v-10h-82l-63 74l-63 -74h-82v10l94 121h102z" />
    <glyph glyph-name="edieresis" unicode="&#xeb;" horiz-adv-x="537" 
d="M140 212q0 -33 11 -60.5t31 -47.5t48 -31t63 -11q50 0 84 13t60 30l35 -68q-32 -21 -78 -36.5t-109 -15.5q-62 0 -106.5 21t-73.5 56t-42.5 82t-13.5 99q0 49 14 95t42.5 81t71 56.5t99.5 21.5t97.5 -17.5t67 -46t38.5 -66.5t12 -78q0 -19 -2 -41.5t-4 -35.5h-345z
M403 284q1 5 1 10.5v10.5q0 25 -8.5 46t-24.5 36.5t-40 24t-55 8.5q-30 0 -54.5 -10t-42 -28t-27.5 -43t-12 -55h263zM126 634q0 26 15.5 41t41.5 15q27 0 42.5 -15t15.5 -41t-15.5 -41.5t-42.5 -15.5q-26 0 -41.5 15.5t-15.5 41.5zM325 634q0 26 15.5 41t41.5 15
q27 0 42.5 -15t15.5 -41t-15.5 -41.5t-42.5 -15.5q-26 0 -41.5 15.5t-15.5 41.5z" />
    <glyph glyph-name="igrave" unicode="&#xec;" horiz-adv-x="242" 
d="M76 0v482h90v-482h-90zM2 710h98l64 -121v-10h-77l-85 121v10z" />
    <glyph glyph-name="iacute" unicode="&#xed;" horiz-adv-x="242" 
d="M76 0v482h90v-482h-90zM243 700l-85 -121h-77v10l64 121h98v-10z" />
    <glyph glyph-name="icircumflex" unicode="&#xee;" horiz-adv-x="242" 
d="M76 0v482h90v-482h-90zM267 589v-10h-82l-63 74l-63 -74h-82v10l94 121h102z" />
    <glyph glyph-name="idieresis" unicode="&#xef;" horiz-adv-x="242" 
d="M76 0v482h90v-482h-90zM-35 634q0 26 15.5 41t41.5 15q27 0 42.5 -15t15.5 -41t-15.5 -41.5t-42.5 -15.5q-26 0 -41.5 15.5t-15.5 41.5zM164 634q0 26 15.5 41t41.5 15q27 0 42.5 -15t15.5 -41t-15.5 -41.5t-42.5 -15.5q-26 0 -41.5 15.5t-15.5 41.5z" />
    <glyph glyph-name="eth" unicode="&#xf0;" horiz-adv-x="586" 
d="M387 583q31 -39 58 -80t47 -83.5t32 -86.5t12 -89q0 -57 -16 -104.5t-47.5 -82t-77 -53.5t-103.5 -19t-103 19t-76 52.5t-47.5 78.5t-16.5 98q0 55 16 99.5t45 76t69.5 49t89.5 17.5q16 0 34.5 -3.5t35.5 -9.5t32 -13.5t25 -14.5l2 2q-15 29 -39 62.5t-50 61.5l-106 -28
l-21 59l76 20q-19 20 -41.5 42t-41.5 37v10h103q14 -14 30.5 -32t30.5 -33l99 26l21 -60zM141 233q0 -37 11 -67t31 -51.5t48 -33t61 -11.5q69 0 110.5 44t41.5 119q0 76 -41.5 116.5t-110.5 40.5q-67 0 -109 -40.5t-42 -116.5z" />
    <glyph glyph-name="ntilde" unicode="&#xf1;" horiz-adv-x="570" 
d="M140 482l11 -44h2q11 8 29 18t40.5 19t48.5 15.5t52 6.5q81 0 128.5 -46.5t47.5 -137.5v-313h-90v295q0 62 -26.5 92.5t-81.5 30.5q-19 0 -38.5 -4.5t-38 -11.5t-33.5 -15.5t-25 -15.5v-371h-90v482h64zM142 634q14 20 36 38.5t54 18.5q16 0 33 -6.5t33.5 -14t32.5 -13.5
t31 -6q17 0 31.5 9t27.5 26l27 -50q-18 -25 -39.5 -41t-50.5 -16q-17 0 -33 6t-32.5 13.5t-33 14t-32.5 6.5t-31 -9.5t-27 -25.5z" />
    <glyph glyph-name="ograve" unicode="&#xf2;" horiz-adv-x="574" 
d="M141 241q0 -37 7.5 -69.5t24.5 -56.5t44.5 -37.5t67.5 -13.5q41 0 69 13.5t45.5 37.5t25.5 56.5t8 69.5t-8 69.5t-25.5 56.5t-45.5 37.5t-69 13.5q-40 0 -67.5 -13.5t-44.5 -37.5t-24.5 -56.5t-7.5 -69.5zM525 241q0 -53 -13.5 -99.5t-42.5 -81t-74.5 -55t-109.5 -20.5
q-63 0 -108 20.5t-73.5 55t-41.5 81t-13 99.5q0 52 13 99t41.5 81.5t73.5 55t108 20.5q64 0 109.5 -20.5t74.5 -55t42.5 -81.5t13.5 -99zM170 710h98l64 -121v-10h-77l-85 121v10z" />
    <glyph glyph-name="oacute" unicode="&#xf3;" horiz-adv-x="574" 
d="M141 241q0 -37 7.5 -69.5t24.5 -56.5t44.5 -37.5t67.5 -13.5q41 0 69 13.5t45.5 37.5t25.5 56.5t8 69.5t-8 69.5t-25.5 56.5t-45.5 37.5t-69 13.5q-40 0 -67.5 -13.5t-44.5 -37.5t-24.5 -56.5t-7.5 -69.5zM525 241q0 -53 -13.5 -99.5t-42.5 -81t-74.5 -55t-109.5 -20.5
q-63 0 -108 20.5t-73.5 55t-41.5 81t-13 99.5q0 52 13 99t41.5 81.5t73.5 55t108 20.5q64 0 109.5 -20.5t74.5 -55t42.5 -81.5t13.5 -99zM407 700l-85 -121h-77v10l64 121h98v-10z" />
    <glyph glyph-name="ocircumflex" unicode="&#xf4;" horiz-adv-x="574" 
d="M141 241q0 -37 7.5 -69.5t24.5 -56.5t44.5 -37.5t67.5 -13.5q41 0 69 13.5t45.5 37.5t25.5 56.5t8 69.5t-8 69.5t-25.5 56.5t-45.5 37.5t-69 13.5q-40 0 -67.5 -13.5t-44.5 -37.5t-24.5 -56.5t-7.5 -69.5zM525 241q0 -53 -13.5 -99.5t-42.5 -81t-74.5 -55t-109.5 -20.5
q-63 0 -108 20.5t-73.5 55t-41.5 81t-13 99.5q0 52 13 99t41.5 81.5t73.5 55t108 20.5q64 0 109.5 -20.5t74.5 -55t42.5 -81.5t13.5 -99zM432 589v-10h-82l-63 74l-63 -74h-82v10l94 121h102z" />
    <glyph glyph-name="otilde" unicode="&#xf5;" horiz-adv-x="574" 
d="M141 241q0 -37 7.5 -69.5t24.5 -56.5t44.5 -37.5t67.5 -13.5q41 0 69 13.5t45.5 37.5t25.5 56.5t8 69.5t-8 69.5t-25.5 56.5t-45.5 37.5t-69 13.5q-40 0 -67.5 -13.5t-44.5 -37.5t-24.5 -56.5t-7.5 -69.5zM525 241q0 -53 -13.5 -99.5t-42.5 -81t-74.5 -55t-109.5 -20.5
q-63 0 -108 20.5t-73.5 55t-41.5 81t-13 99.5q0 52 13 99t41.5 81.5t73.5 55t108 20.5q64 0 109.5 -20.5t74.5 -55t42.5 -81.5t13.5 -99zM134 634q14 20 36 38.5t54 18.5q16 0 33 -6.5t33.5 -14t32.5 -13.5t31 -6q17 0 31.5 9t27.5 26l27 -50q-18 -25 -39.5 -41t-50.5 -16
q-17 0 -33 6t-32.5 13.5t-33 14t-32.5 6.5t-31 -9.5t-27 -25.5z" />
    <glyph glyph-name="odieresis" unicode="&#xf6;" horiz-adv-x="574" 
d="M141 241q0 -37 7.5 -69.5t24.5 -56.5t44.5 -37.5t67.5 -13.5q41 0 69 13.5t45.5 37.5t25.5 56.5t8 69.5t-8 69.5t-25.5 56.5t-45.5 37.5t-69 13.5q-40 0 -67.5 -13.5t-44.5 -37.5t-24.5 -56.5t-7.5 -69.5zM525 241q0 -53 -13.5 -99.5t-42.5 -81t-74.5 -55t-109.5 -20.5
q-63 0 -108 20.5t-73.5 55t-41.5 81t-13 99.5q0 52 13 99t41.5 81.5t73.5 55t108 20.5q64 0 109.5 -20.5t74.5 -55t42.5 -81.5t13.5 -99zM130 634q0 26 15.5 41t41.5 15q27 0 42.5 -15t15.5 -41t-15.5 -41.5t-42.5 -15.5q-26 0 -41.5 15.5t-15.5 41.5zM329 634q0 26 15.5 41
t41.5 15q27 0 42.5 -15t15.5 -41t-15.5 -41.5t-42.5 -15.5q-26 0 -41.5 15.5t-15.5 41.5z" />
    <glyph glyph-name="divide" unicode="&#xf7;" 
d="M533 307v-74h-477v74h477zM229 70q0 29 17.5 47t46.5 18t46.5 -18t17.5 -47t-17.5 -47t-46.5 -18t-46.5 18t-17.5 47zM229 470q0 29 17.5 47t46.5 18t46.5 -18t17.5 -47t-17.5 -47t-46.5 -18t-46.5 18t-17.5 47z" />
    <glyph glyph-name="oslash" unicode="&#xf8;" horiz-adv-x="574" 
d="M72 14l34 44q-30 35 -43.5 82t-13.5 101q0 52 13 99t41.5 81.5t73.5 55t108 20.5q41 0 74 -8.5t59 -24.5l34 46l55 -43l-37 -48q29 -35 42 -80.5t13 -97.5q0 -53 -13.5 -99.5t-42.5 -81t-74.5 -55t-109.5 -20.5q-38 0 -69.5 7.5t-56.5 21.5l-35 -45zM433 241
q0 29 -4.5 55t-15.5 48l-203 -263q31 -17 75 -17q41 0 69 13.5t45.5 37.5t25.5 56.5t8 69.5zM141 241q0 -32 5 -59t17 -50l204 265q-16 10 -36.5 15.5t-45.5 5.5q-40 0 -67.5 -13.5t-44.5 -37.5t-24.5 -56.5t-7.5 -69.5z" />
    <glyph glyph-name="ugrave" unicode="&#xf9;" horiz-adv-x="563" 
d="M161 482v-295q0 -62 24 -92.5t80 -30.5q19 0 38 4.5t36.5 11.5t32.5 15.5t25 15.5v371h90v-482h-64l-11 44h-2q-11 -8 -29 -18t-39.5 -19t-47 -15.5t-51.5 -6.5q-81 0 -126.5 46.5t-45.5 137.5v313h90zM164 710h98l64 -121v-10h-77l-85 121v10z" />
    <glyph glyph-name="uacute" unicode="&#xfa;" horiz-adv-x="563" 
d="M161 482v-295q0 -62 24 -92.5t80 -30.5q19 0 38 4.5t36.5 11.5t32.5 15.5t25 15.5v371h90v-482h-64l-11 44h-2q-11 -8 -29 -18t-39.5 -19t-47 -15.5t-51.5 -6.5q-81 0 -126.5 46.5t-45.5 137.5v313h90zM404 700l-85 -121h-77v10l64 121h98v-10z" />
    <glyph glyph-name="ucircumflex" unicode="&#xfb;" horiz-adv-x="563" 
d="M161 482v-295q0 -62 24 -92.5t80 -30.5q19 0 38 4.5t36.5 11.5t32.5 15.5t25 15.5v371h90v-482h-64l-11 44h-2q-11 -8 -29 -18t-39.5 -19t-47 -15.5t-51.5 -6.5q-81 0 -126.5 46.5t-45.5 137.5v313h90zM427 589v-10h-82l-63 74l-63 -74h-82v10l94 121h102z" />
    <glyph glyph-name="udieresis" unicode="&#xfc;" horiz-adv-x="563" 
d="M161 482v-295q0 -62 24 -92.5t80 -30.5q19 0 38 4.5t36.5 11.5t32.5 15.5t25 15.5v371h90v-482h-64l-11 44h-2q-11 -8 -29 -18t-39.5 -19t-47 -15.5t-51.5 -6.5q-81 0 -126.5 46.5t-45.5 137.5v313h90zM125 634q0 26 15.5 41t41.5 15q27 0 42.5 -15t15.5 -41t-15.5 -41.5
t-42.5 -15.5q-26 0 -41.5 15.5t-15.5 41.5zM324 634q0 26 15.5 41t41.5 15q27 0 42.5 -15t15.5 -41t-15.5 -41.5t-42.5 -15.5q-26 0 -41.5 15.5t-15.5 41.5z" />
    <glyph glyph-name="yacute" unicode="&#xfd;" horiz-adv-x="505" 
d="M482 472l-202 -536q-29 -77 -69.5 -113t-97.5 -36q-20 0 -41.5 3.5t-35.5 6.5v76q15 -2 33.5 -4.5t35.5 -2.5q32 0 52 18t34 57l23 64l-194 467v10h90l143 -375h3l137 375h89v-10zM382 700l-85 -121h-77v10l64 121h98v-10z" />
    <glyph glyph-name="thorn" unicode="&#xfe;" horiz-adv-x="573" 
d="M166 111q23 -21 59 -34t72 -13q38 0 64 14t41.5 38t22 56.5t6.5 68.5t-7 68.5t-22.5 56.5t-41.5 38t-64 14q-36 0 -71 -13t-59 -34v-260zM76 700h90v-252h2q26 19 61 34t91 15q53 0 91.5 -20.5t63 -55t36.5 -81.5t12 -99q0 -53 -11.5 -99.5t-36 -81t-63 -55t-91.5 -20.5
q-56 0 -91.5 15t-61.5 34h-2v-232h-90v898z" />
    <glyph glyph-name="ydieresis" unicode="&#xff;" horiz-adv-x="505" 
d="M482 472l-202 -536q-29 -77 -69.5 -113t-97.5 -36q-20 0 -41.5 3.5t-35.5 6.5v76q15 -2 33.5 -4.5t35.5 -2.5q32 0 52 18t34 57l23 64l-194 467v10h90l143 -375h3l137 375h89v-10zM98 634q0 26 15.5 41t41.5 15q27 0 42.5 -15t15.5 -41t-15.5 -41.5t-42.5 -15.5
q-26 0 -41.5 15.5t-15.5 41.5zM297 634q0 26 15.5 41t41.5 15q27 0 42.5 -15t15.5 -41t-15.5 -41.5t-42.5 -15.5q-26 0 -41.5 15.5t-15.5 41.5z" />
    <glyph glyph-name="Amacron" unicode="&#x100;" horiz-adv-x="631" 
d="M619 0h-96l-61 170h-293l-62 -170h-95l257 680h93zM314 572l-115 -324h232l-115 324h-2zM183 777v74h265v-74h-265z" />
    <glyph glyph-name="amacron" unicode="&#x101;" horiz-adv-x="520" 
d="M283 218q-43 0 -71.5 -5.5t-46 -15.5t-25 -24.5t-7.5 -32.5q0 -39 21.5 -57.5t61.5 -18.5q34 0 69 11t61 30v113h-63zM361 43q-33 -27 -74 -42.5t-89 -15.5q-33 0 -62 10t-50 28.5t-33 46.5t-12 64q0 44 17 73.5t47.5 47.5t72 25.5t91.5 7.5h77v25q0 52 -25 78.5
t-83 26.5q-35 0 -72.5 -12.5t-65.5 -29.5l-34 68q32 23 77 38t97 15q94 0 145 -47.5t51 -138.5v-218q0 -13 4.5 -19.5t23.5 -6.5h27v-71q-11 -3 -23 -5.5t-26 -2.5q-35 0 -53 15t-26 40h-2zM139 597v74h265v-74h-265z" />
    <glyph glyph-name="Abreve" unicode="&#x102;" horiz-adv-x="631" 
d="M619 0h-96l-61 170h-293l-62 -170h-95l257 680h93zM314 572l-115 -324h232l-115 324h-2zM315 838q34 0 65.5 6.5t54.5 25.5l30 -42q-24 -34 -62.5 -49.5t-87.5 -15.5q-48 0 -86.5 15.5t-62.5 49.5l30 42q23 -19 54.5 -25.5t64.5 -6.5z" />
    <glyph glyph-name="abreve" unicode="&#x103;" horiz-adv-x="520" 
d="M283 218q-43 0 -71.5 -5.5t-46 -15.5t-25 -24.5t-7.5 -32.5q0 -39 21.5 -57.5t61.5 -18.5q34 0 69 11t61 30v113h-63zM361 43q-33 -27 -74 -42.5t-89 -15.5q-33 0 -62 10t-50 28.5t-33 46.5t-12 64q0 44 17 73.5t47.5 47.5t72 25.5t91.5 7.5h77v25q0 52 -25 78.5
t-83 26.5q-35 0 -72.5 -12.5t-65.5 -29.5l-34 68q32 23 77 38t97 15q94 0 145 -47.5t51 -138.5v-218q0 -13 4.5 -19.5t23.5 -6.5h27v-71q-11 -3 -23 -5.5t-26 -2.5q-35 0 -53 15t-26 40h-2zM271 654q34 0 65.5 6.5t54.5 25.5l30 -42q-24 -34 -62.5 -49.5t-87.5 -15.5
q-48 0 -86.5 15.5t-62.5 49.5l30 42q23 -19 54.5 -25.5t64.5 -6.5z" />
    <glyph glyph-name="Aogonek" unicode="&#x104;" horiz-adv-x="631" 
d="M544 -213q-19 0 -37 5.5t-32.5 16.5t-23 29t-8.5 44q0 36 22.5 65t57.5 53l-61 170h-293l-62 -170h-95l257 680h93l257 -680q-27 -12 -46 -24.5t-31 -25t-17.5 -25.5t-5.5 -26q0 -21 11.5 -32t33.5 -11q19 0 33.5 7t25.5 14l8 -62q-14 -10 -37 -19t-50 -9zM314 572
l-115 -324h232l-115 324h-2z" />
    <glyph glyph-name="aogonek" unicode="&#x105;" horiz-adv-x="520" 
d="M283 218q-43 0 -71.5 -5.5t-46 -15.5t-25 -24.5t-7.5 -32.5q0 -39 21.5 -57.5t61.5 -18.5q34 0 69 11t61 30v113h-63zM386 1q-8 7 -14 17t-9 23h-2q-33 -25 -74 -40.5t-89 -15.5q-33 0 -62 10t-50 28.5t-33 46.5t-12 64q0 44 17 73.5t47.5 47.5t72 25.5t91.5 7.5h77v25
q0 52 -25 78.5t-83 26.5q-35 0 -72.5 -12.5t-65.5 -29.5l-34 68q32 23 77 38t97 15q94 0 145 -47.5t51 -138.5v-221q0 -13 4.5 -19.5t23.5 -6.5h27v-66q-22 -12 -42 -24t-35 -24t-24 -25t-9 -26q0 -43 45 -43q19 0 33.5 7t25.5 14l8 -62q-14 -10 -37 -19t-50 -9
q-19 0 -37 5.5t-32.5 16.5t-23 29t-8.5 44q0 38 23 65.5t58 53.5z" />
    <glyph glyph-name="Cacute" unicode="&#x106;" horiz-adv-x="598" 
d="M57 340q0 79 20.5 144.5t60 112.5t98 72.5t135.5 25.5q44 0 90 -11.5t91 -32.5l-25 -73q-43 19 -80.5 25.5t-75.5 6.5q-57 0 -98.5 -19t-68.5 -54t-39.5 -85t-12.5 -112t12.5 -112t39.5 -85t68.5 -54t98.5 -19q38 0 75.5 6.5t80.5 25.5l25 -73q-45 -21 -91 -32.5
t-90 -11.5q-77 0 -135.5 25.5t-98 72.5t-60 112t-20.5 145zM462 873l-75 -121h-77v10l54 121h98v-10z" />
    <glyph glyph-name="cacute" unicode="&#x107;" horiz-adv-x="481" 
d="M49 241q0 57 16 104t46 80.5t74 52.5t101 19q38 0 79 -10.5t72 -24.5l-23 -70q-22 9 -57 17.5t-70 8.5q-38 0 -65.5 -15t-45.5 -40t-26.5 -57t-8.5 -65t8.5 -65t26.5 -57t45.5 -40t65.5 -15q35 0 70 8.5t57 17.5l23 -70q-31 -14 -72 -24.5t-79 -10.5q-57 0 -101 19
t-74 52.5t-46 80.5t-16 104zM399 700l-85 -121h-77v10l64 121h98v-10z" />
    <glyph glyph-name="Ccircumflex" unicode="&#x108;" horiz-adv-x="598" 
d="M57 340q0 79 20.5 144.5t60 112.5t98 72.5t135.5 25.5q44 0 90 -11.5t91 -32.5l-25 -73q-43 19 -80.5 25.5t-75.5 6.5q-57 0 -98.5 -19t-68.5 -54t-39.5 -85t-12.5 -112t12.5 -112t39.5 -85t68.5 -54t98.5 -19q38 0 75.5 6.5t80.5 25.5l25 -73q-45 -21 -91 -32.5
t-90 -11.5q-77 0 -135.5 25.5t-98 72.5t-60 112t-20.5 145zM504 762v-10h-82l-63 71l-63 -71h-82v10l94 121h102z" />
    <glyph glyph-name="ccircumflex" unicode="&#x109;" horiz-adv-x="481" 
d="M49 241q0 57 16 104t46 80.5t74 52.5t101 19q38 0 79 -10.5t72 -24.5l-23 -70q-22 9 -57 17.5t-70 8.5q-38 0 -65.5 -15t-45.5 -40t-26.5 -57t-8.5 -65t8.5 -65t26.5 -57t45.5 -40t65.5 -15q35 0 70 8.5t57 17.5l23 -70q-31 -14 -72 -24.5t-79 -10.5q-57 0 -101 19
t-74 52.5t-46 80.5t-16 104zM420 589v-10h-82l-63 74l-63 -74h-82v10l94 121h102z" />
    <glyph glyph-name="Cdotaccent" unicode="&#x10a;" horiz-adv-x="598" 
d="M57 340q0 79 20.5 144.5t60 112.5t98 72.5t135.5 25.5q44 0 90 -11.5t91 -32.5l-25 -73q-43 19 -80.5 25.5t-75.5 6.5q-57 0 -98.5 -19t-68.5 -54t-39.5 -85t-12.5 -112t12.5 -112t39.5 -85t68.5 -54t98.5 -19q38 0 75.5 6.5t80.5 25.5l25 -73q-45 -21 -91 -32.5
t-90 -11.5q-77 0 -135.5 25.5t-98 72.5t-60 112t-20.5 145zM300 816q0 26 15.5 41t41.5 15q27 0 42.5 -15t15.5 -41t-15.5 -41.5t-42.5 -15.5q-26 0 -41.5 15.5t-15.5 41.5z" />
    <glyph glyph-name="cdotaccent" unicode="&#x10b;" horiz-adv-x="481" 
d="M49 241q0 57 16 104t46 80.5t74 52.5t101 19q38 0 79 -10.5t72 -24.5l-23 -70q-22 9 -57 17.5t-70 8.5q-38 0 -65.5 -15t-45.5 -40t-26.5 -57t-8.5 -65t8.5 -65t26.5 -57t45.5 -40t65.5 -15q35 0 70 8.5t57 17.5l23 -70q-31 -14 -72 -24.5t-79 -10.5q-57 0 -101 19
t-74 52.5t-46 80.5t-16 104zM219 634q0 26 15.5 41t41.5 15q27 0 42.5 -15t15.5 -41t-15.5 -41.5t-42.5 -15.5q-26 0 -41.5 15.5t-15.5 41.5z" />
    <glyph glyph-name="Ccaron" unicode="&#x10c;" horiz-adv-x="598" 
d="M57 340q0 79 20.5 144.5t60 112.5t98 72.5t135.5 25.5q44 0 90 -11.5t91 -32.5l-25 -73q-43 19 -80.5 25.5t-75.5 6.5q-57 0 -98.5 -19t-68.5 -54t-39.5 -85t-12.5 -112t12.5 -112t39.5 -85t68.5 -54t98.5 -19q38 0 75.5 6.5t80.5 25.5l25 -73q-45 -21 -91 -32.5
t-90 -11.5q-77 0 -135.5 25.5t-98 72.5t-60 112t-20.5 145zM207 873v10h82l63 -71l63 71h82v-10l-94 -121h-102z" />
    <glyph glyph-name="ccaron" unicode="&#x10d;" horiz-adv-x="481" 
d="M49 241q0 57 16 104t46 80.5t74 52.5t101 19q38 0 79 -10.5t72 -24.5l-23 -70q-22 9 -57 17.5t-70 8.5q-38 0 -65.5 -15t-45.5 -40t-26.5 -57t-8.5 -65t8.5 -65t26.5 -57t45.5 -40t65.5 -15q35 0 70 8.5t57 17.5l23 -70q-31 -14 -72 -24.5t-79 -10.5q-57 0 -101 19
t-74 52.5t-46 80.5t-16 104zM131 700v10h82l63 -74l63 74h82v-10l-94 -121h-102z" />
    <glyph glyph-name="Dcaron" unicode="&#x10e;" horiz-adv-x="687" 
d="M91 680h188q94 0 160 -22t108 -65.5t61 -107t19 -145.5q0 -83 -19 -146t-61 -106.5t-108 -65.5t-160 -22h-188v680zM266 83q79 0 130.5 15t81.5 46.5t42 80t12 115.5t-12 115.5t-42 80t-81.5 46.5t-130.5 15h-83v-514h83zM182 873v10h82l63 -71l63 71h82v-10l-94 -121
h-102z" />
    <glyph glyph-name="dcaron" unicode="&#x10f;" horiz-adv-x="573" 
d="M407 371q-23 21 -58.5 34t-71.5 13q-38 0 -64 -14t-42 -38t-22.5 -56.5t-6.5 -68.5t6.5 -68.5t22.5 -56.5t42 -38t64 -14q36 0 71.5 13t58.5 34v260zM497 700v-700h-64l-10 44h-2q-13 -9 -30.5 -19.5t-39 -19.5t-46 -14.5t-52.5 -5.5q-53 0 -91.5 20.5t-63.5 55t-36.5 81
t-11.5 99.5q0 52 11.5 99t36.5 81.5t63.5 55t91.5 20.5q55 0 90.5 -15t61.5 -34h2v252h90zM537 539l20 141h93v-10l-42 -141h-71v10z" />
    <glyph glyph-name="Dcroat" unicode="&#x110;" horiz-adv-x="688" 
d="M92 294h-49v83h49v303h188q94 0 160 -22t108 -65.5t61 -107t19 -145.5q0 -83 -19 -146t-61 -106.5t-108 -65.5t-160 -22h-188v294zM267 83q79 0 130.5 15t81.5 46.5t42 80t12 115.5t-12 115.5t-42 80t-81.5 46.5t-130.5 15h-83v-220h164v-83h-164v-211h83z" />
    <glyph glyph-name="dcroat" unicode="&#x111;" horiz-adv-x="573" 
d="M497 556v-556h-64l-10 44h-2q-13 -9 -30.5 -19.5t-39 -19.5t-46 -14.5t-52.5 -5.5q-53 0 -91.5 20.5t-63.5 55t-36.5 81t-11.5 99.5q0 52 11.5 99t36.5 81.5t63.5 55t91.5 20.5q55 0 90.5 -15t61.5 -34h2v108h-112v74h112v70h90v-70h63v-74h-63zM407 371q-23 21 -58.5 34
t-71.5 13q-38 0 -64 -14t-42 -38t-22.5 -56.5t-6.5 -68.5t6.5 -68.5t22.5 -56.5t42 -38t64 -14q36 0 71.5 13t58.5 34v260z" />
    <glyph glyph-name="Emacron" unicode="&#x112;" horiz-adv-x="586" 
d="M524 680v-83h-341v-209h309v-83h-309v-222h344v-83h-436v680h433zM183 777v74h265v-74h-265z" />
    <glyph glyph-name="emacron" unicode="&#x113;" horiz-adv-x="537" 
d="M140 212q0 -33 11 -60.5t31 -47.5t48 -31t63 -11q50 0 84 13t60 30l35 -68q-32 -21 -78 -36.5t-109 -15.5q-62 0 -106.5 21t-73.5 56t-42.5 82t-13.5 99q0 49 14 95t42.5 81t71 56.5t99.5 21.5t97.5 -17.5t67 -46t38.5 -66.5t12 -78q0 -19 -2 -41.5t-4 -35.5h-345z
M403 284q1 5 1 10.5v10.5q0 25 -8.5 46t-24.5 36.5t-40 24t-55 8.5q-30 0 -54.5 -10t-42 -28t-27.5 -43t-12 -55h263zM151 597v74h265v-74h-265z" />
    <glyph glyph-name="Ebreve" unicode="&#x114;" horiz-adv-x="586" 
d="M524 680v-83h-341v-209h309v-83h-309v-222h344v-83h-436v680h433zM312 838q34 0 65.5 6.5t54.5 25.5l30 -42q-24 -34 -62.5 -49.5t-87.5 -15.5q-48 0 -86.5 15.5t-62.5 49.5l30 42q23 -19 54.5 -25.5t64.5 -6.5z" />
    <glyph glyph-name="ebreve" unicode="&#x115;" horiz-adv-x="537" 
d="M140 212q0 -33 11 -60.5t31 -47.5t48 -31t63 -11q50 0 84 13t60 30l35 -68q-32 -21 -78 -36.5t-109 -15.5q-62 0 -106.5 21t-73.5 56t-42.5 82t-13.5 99q0 49 14 95t42.5 81t71 56.5t99.5 21.5t97.5 -17.5t67 -46t38.5 -66.5t12 -78q0 -19 -2 -41.5t-4 -35.5h-345z
M403 284q1 5 1 10.5v10.5q0 25 -8.5 46t-24.5 36.5t-40 24t-55 8.5q-30 0 -54.5 -10t-42 -28t-27.5 -43t-12 -55h263zM289 654q34 0 65.5 6.5t54.5 25.5l30 -42q-24 -34 -62.5 -49.5t-87.5 -15.5q-48 0 -86.5 15.5t-62.5 49.5l30 42q23 -19 54.5 -25.5t64.5 -6.5z" />
    <glyph glyph-name="Edotaccent" unicode="&#x116;" horiz-adv-x="586" 
d="M524 680v-83h-341v-209h309v-83h-309v-222h344v-83h-436v680h433zM258 816q0 26 15.5 41t41.5 15q27 0 42.5 -15t15.5 -41t-15.5 -41.5t-42.5 -15.5q-26 0 -41.5 15.5t-15.5 41.5z" />
    <glyph glyph-name="edotaccent" unicode="&#x117;" horiz-adv-x="537" 
d="M140 212q0 -33 11 -60.5t31 -47.5t48 -31t63 -11q50 0 84 13t60 30l35 -68q-32 -21 -78 -36.5t-109 -15.5q-62 0 -106.5 21t-73.5 56t-42.5 82t-13.5 99q0 49 14 95t42.5 81t71 56.5t99.5 21.5t97.5 -17.5t67 -46t38.5 -66.5t12 -78q0 -19 -2 -41.5t-4 -35.5h-345z
M403 284q1 5 1 10.5v10.5q0 25 -8.5 46t-24.5 36.5t-40 24t-55 8.5q-30 0 -54.5 -10t-42 -28t-27.5 -43t-12 -55h263zM226 634q0 26 15.5 41t41.5 15q27 0 42.5 -15t15.5 -41t-15.5 -41.5t-42.5 -15.5q-26 0 -41.5 15.5t-15.5 41.5z" />
    <glyph glyph-name="Eogonek" unicode="&#x118;" horiz-adv-x="586" 
d="M458 -213q-19 0 -37 5.5t-32.5 16.5t-23 29t-8.5 44q0 18 6 34t16.5 30.5t25 28t31.5 25.5h-345v680h433v-83h-341v-209h309v-83h-309v-222h344v-83q-23 -13 -40.5 -25.5t-29.5 -25t-18 -25t-6 -25.5q0 -21 11.5 -32t33.5 -11q19 0 33.5 7t25.5 14l8 -62q-14 -10 -37 -19
t-50 -9z" />
    <glyph glyph-name="eogonek" unicode="&#x119;" horiz-adv-x="537" 
d="M318 -13q-8 -1 -16.5 -1.5t-16.5 -0.5q-62 0 -106.5 21t-73.5 56t-42.5 82t-13.5 99q0 49 14 95t42.5 81t71 56.5t99.5 21.5t97.5 -17.5t67 -46t38.5 -66.5t12 -78q0 -19 -2 -41.5t-4 -35.5h-345q0 -33 11 -60.5t31 -47.5t48 -31t63 -11q50 0 84 13t60 30l35 -68
q-5 -4 -10 -6.5t-12 -6.5q-32 -18 -52 -35t-31 -32.5t-15 -30t-4 -27.5q0 -43 45 -43q19 0 33.5 7t25.5 14l8 -62q-14 -10 -37 -19t-50 -9q-19 0 -37 5.5t-32.5 16.5t-23 29t-8.5 44t10.5 53t35.5 50v2zM403 284q1 5 1 10.5v10.5q0 25 -8.5 46t-24.5 36.5t-40 24t-55 8.5
q-30 0 -54.5 -10t-42 -28t-27.5 -43t-12 -55h263z" />
    <glyph glyph-name="Ecaron" unicode="&#x11a;" horiz-adv-x="586" 
d="M524 680v-83h-341v-209h309v-83h-309v-222h344v-83h-436v680h433zM169 873v10h82l63 -71l63 71h82v-10l-94 -121h-102z" />
    <glyph glyph-name="ecaron" unicode="&#x11b;" horiz-adv-x="537" 
d="M140 212q0 -33 11 -60.5t31 -47.5t48 -31t63 -11q50 0 84 13t60 30l35 -68q-32 -21 -78 -36.5t-109 -15.5q-62 0 -106.5 21t-73.5 56t-42.5 82t-13.5 99q0 49 14 95t42.5 81t71 56.5t99.5 21.5t97.5 -17.5t67 -46t38.5 -66.5t12 -78q0 -19 -2 -41.5t-4 -35.5h-345z
M403 284q1 5 1 10.5v10.5q0 25 -8.5 46t-24.5 36.5t-40 24t-55 8.5q-30 0 -54.5 -10t-42 -28t-27.5 -43t-12 -55h263zM138 700v10h82l63 -74l63 74h82v-10l-94 -121h-102z" />
    <glyph glyph-name="Gcircumflex" unicode="&#x11c;" horiz-adv-x="661" 
d="M593 339v-285q-42 -29 -104 -49t-127 -20q-80 0 -137 26.5t-94.5 73.5t-55 112.5t-17.5 142.5t17.5 142t55.5 112.5t97.5 74t142.5 26.5q70 0 124 -20t95 -43l-33 -73q-41 22 -90.5 36.5t-95.5 14.5q-59 0 -100 -18.5t-67.5 -53.5t-38.5 -85t-12 -113q0 -59 11 -108.5
t35.5 -85.5t64.5 -56t98 -20q41 0 76 6.5t63 23.5v156l-135 20v63h227zM503 762v-10h-82l-63 71l-63 -71h-82v10l94 121h102z" />
    <glyph glyph-name="gcircumflex" unicode="&#x11d;" horiz-adv-x="573" 
d="M407 371q-24 21 -59.5 34t-71.5 13q-38 0 -64 -13.5t-41.5 -37.5t-22 -56t-6.5 -68t6.5 -68t22 -56t41.5 -37.5t64 -13.5q36 0 71.5 13t59.5 34v256zM497 -2q0 -47 -15 -86t-43.5 -67t-69 -43t-92.5 -15t-95.5 10.5t-79.5 25.5l24 71q32 -13 71 -20.5t80 -7.5q60 0 95 29
t35 92v51h-2q-26 -19 -60.5 -34t-90.5 -15q-53 0 -91.5 20t-63.5 54.5t-37 80.5t-12 99q0 52 12 98.5t37 81t63.5 54.5t91.5 20q28 0 52.5 -5.5t45.5 -14.5t38 -19.5t29 -19.5h2l12 44h64v-484zM441 589v-10h-82l-63 74l-63 -74h-82v10l94 121h102z" />
    <glyph glyph-name="Gbreve" unicode="&#x11e;" horiz-adv-x="661" 
d="M593 339v-285q-42 -29 -104 -49t-127 -20q-80 0 -137 26.5t-94.5 73.5t-55 112.5t-17.5 142.5t17.5 142t55.5 112.5t97.5 74t142.5 26.5q70 0 124 -20t95 -43l-33 -73q-41 22 -90.5 36.5t-95.5 14.5q-59 0 -100 -18.5t-67.5 -53.5t-38.5 -85t-12 -113q0 -59 11 -108.5
t35.5 -85.5t64.5 -56t98 -20q41 0 76 6.5t63 23.5v156l-135 20v63h227zM360 838q34 0 65.5 6.5t54.5 25.5l30 -42q-24 -34 -62.5 -49.5t-87.5 -15.5q-48 0 -86.5 15.5t-62.5 49.5l30 42q23 -19 54.5 -25.5t64.5 -6.5z" />
    <glyph glyph-name="gbreve" unicode="&#x11f;" horiz-adv-x="573" 
d="M407 371q-24 21 -59.5 34t-71.5 13q-38 0 -64 -13.5t-41.5 -37.5t-22 -56t-6.5 -68t6.5 -68t22 -56t41.5 -37.5t64 -13.5q36 0 71.5 13t59.5 34v256zM497 -2q0 -47 -15 -86t-43.5 -67t-69 -43t-92.5 -15t-95.5 10.5t-79.5 25.5l24 71q32 -13 71 -20.5t80 -7.5q60 0 95 29
t35 92v51h-2q-26 -19 -60.5 -34t-90.5 -15q-53 0 -91.5 20t-63.5 54.5t-37 80.5t-12 99q0 52 12 98.5t37 81t63.5 54.5t91.5 20q28 0 52.5 -5.5t45.5 -14.5t38 -19.5t29 -19.5h2l12 44h64v-484zM300 654q34 0 65.5 6.5t54.5 25.5l30 -42q-24 -34 -62.5 -49.5t-87.5 -15.5
q-48 0 -86.5 15.5t-62.5 49.5l30 42q23 -19 54.5 -25.5t64.5 -6.5z" />
    <glyph glyph-name="Gdotaccent" unicode="&#x120;" horiz-adv-x="661" 
d="M593 339v-285q-42 -29 -104 -49t-127 -20q-80 0 -137 26.5t-94.5 73.5t-55 112.5t-17.5 142.5t17.5 142t55.5 112.5t97.5 74t142.5 26.5q70 0 124 -20t95 -43l-33 -73q-41 22 -90.5 36.5t-95.5 14.5q-59 0 -100 -18.5t-67.5 -53.5t-38.5 -85t-12 -113q0 -59 11 -108.5
t35.5 -85.5t64.5 -56t98 -20q41 0 76 6.5t63 23.5v156l-135 20v63h227zM301 816q0 26 15.5 41t41.5 15q27 0 42.5 -15t15.5 -41t-15.5 -41.5t-42.5 -15.5q-26 0 -41.5 15.5t-15.5 41.5z" />
    <glyph glyph-name="gdotaccent" unicode="&#x121;" horiz-adv-x="573" 
d="M407 371q-24 21 -59.5 34t-71.5 13q-38 0 -64 -13.5t-41.5 -37.5t-22 -56t-6.5 -68t6.5 -68t22 -56t41.5 -37.5t64 -13.5q36 0 71.5 13t59.5 34v256zM497 -2q0 -47 -15 -86t-43.5 -67t-69 -43t-92.5 -15t-95.5 10.5t-79.5 25.5l24 71q32 -13 71 -20.5t80 -7.5q60 0 95 29
t35 92v51h-2q-26 -19 -60.5 -34t-90.5 -15q-53 0 -91.5 20t-63.5 54.5t-37 80.5t-12 99q0 52 12 98.5t37 81t63.5 54.5t91.5 20q28 0 52.5 -5.5t45.5 -14.5t38 -19.5t29 -19.5h2l12 44h64v-484zM239 634q0 26 15.5 41t41.5 15q27 0 42.5 -15t15.5 -41t-15.5 -41.5
t-42.5 -15.5q-26 0 -41.5 15.5t-15.5 41.5z" />
    <glyph glyph-name="Gcommaaccent" unicode="&#x122;" horiz-adv-x="661" 
d="M593 339v-285q-42 -29 -104 -49t-127 -20q-80 0 -137 26.5t-94.5 73.5t-55 112.5t-17.5 142.5t17.5 142t55.5 112.5t97.5 74t142.5 26.5q70 0 124 -20t95 -43l-33 -73q-41 22 -90.5 36.5t-95.5 14.5q-59 0 -100 -18.5t-67.5 -53.5t-38.5 -85t-12 -113q0 -59 11 -108.5
t35.5 -85.5t64.5 -56t98 -20q41 0 76 6.5t63 23.5v156l-135 20v63h227zM293 -208l20 141h93v-10l-42 -141h-71v10z" />
    <glyph glyph-name="gcommaaccent" unicode="&#x123;" horiz-adv-x="573" 
d="M407 371q-24 21 -59.5 34t-71.5 13q-38 0 -64 -13.5t-41.5 -37.5t-22 -56t-6.5 -68t6.5 -68t22 -56t41.5 -37.5t64 -13.5q36 0 71.5 13t59.5 34v256zM497 -2q0 -47 -15 -86t-43.5 -67t-69 -43t-92.5 -15t-95.5 10.5t-79.5 25.5l24 71q32 -13 71 -20.5t80 -7.5q60 0 95 29
t35 92v51h-2q-26 -19 -60.5 -34t-90.5 -15q-53 0 -91.5 20t-63.5 54.5t-37 80.5t-12 99q0 52 12 98.5t37 81t63.5 54.5t91.5 20q28 0 52.5 -5.5t45.5 -14.5t38 -19.5t29 -19.5h2l12 44h64v-484zM364 710l-20 -141h-93v10l42 141h71v-10z" />
    <glyph glyph-name="Hcircumflex" unicode="&#x124;" horiz-adv-x="703" 
d="M520 305h-337v-305h-92v680h92v-292h337v292h92v-680h-92v305zM500 762v-10h-82l-63 71l-63 -71h-82v10l94 121h102z" />
    <glyph glyph-name="hcircumflex" unicode="&#x125;" horiz-adv-x="570" 
d="M409 0v295q0 62 -26.5 92.5t-81.5 30.5q-19 0 -38.5 -4.5t-38 -11.5t-33.5 -15.5t-25 -15.5v-371h-90v700h90v-252h2q11 7 27 16t36 16t43 12t49 5q81 0 128.5 -46.5t47.5 -137.5v-313h-90zM441 762v-10h-82l-63 71l-63 -71h-82v10l94 121h102z" />
    <glyph glyph-name="Hbar" unicode="&#x126;" horiz-adv-x="707" 
d="M522 305h-337v-305h-92v508h-50v83h50v89h92v-89h337v89h92v-89h50v-83h-50v-508h-92v305zM522 388v120h-337v-120h337z" />
    <glyph glyph-name="hbar" unicode="&#x127;" horiz-adv-x="570" 
d="M166 557v-109h2q11 7 27 16t36 16t43 12t49 5q81 0 128.5 -46.5t47.5 -137.5v-313h-90v295q0 62 -26.5 92.5t-81.5 30.5q-19 0 -38.5 -4.5t-38 -11.5t-33.5 -15.5t-25 -15.5v-371h-90v557h-62v74h62v69h90v-69h113v-74h-113z" />
    <glyph glyph-name="Itilde" unicode="&#x128;" horiz-adv-x="274" 
d="M183 0h-92v680h92v-680zM-16 817q14 20 36 38.5t54 18.5q16 0 33 -6.5t33.5 -14t32.5 -13.5t31 -6q17 0 31.5 9t27.5 26l27 -50q-18 -25 -39.5 -41t-50.5 -16q-17 0 -33 6t-32.5 13.5t-33 14t-32.5 6.5t-31 -9.5t-27 -25.5z" />
    <glyph glyph-name="itilde" unicode="&#x129;" horiz-adv-x="242" 
d="M76 0v482h90v-482h-90zM-31 634q14 20 36 38.5t54 18.5q16 0 33 -6.5t33.5 -14t32.5 -13.5t31 -6q17 0 31.5 9t27.5 26l27 -50q-18 -25 -39.5 -41t-50.5 -16q-17 0 -33 6t-32.5 13.5t-33 14t-32.5 6.5t-31 -9.5t-27 -25.5z" />
    <glyph glyph-name="Imacron" unicode="&#x12a;" horiz-adv-x="274" 
d="M183 0h-92v680h92v-680zM4 777v74h265v-74h-265z" />
    <glyph glyph-name="imacron" unicode="&#x12b;" horiz-adv-x="242" 
d="M76 0v482h90v-482h-90zM-10 597v74h265v-74h-265z" />
    <glyph glyph-name="Ibreve" unicode="&#x12c;" horiz-adv-x="274" 
d="M183 0h-92v680h92v-680zM135 838q34 0 65.5 6.5t54.5 25.5l30 -42q-24 -34 -62.5 -49.5t-87.5 -15.5q-48 0 -86.5 15.5t-62.5 49.5l30 42q23 -19 54.5 -25.5t64.5 -6.5z" />
    <glyph glyph-name="ibreve" unicode="&#x12d;" horiz-adv-x="242" 
d="M76 0v482h90v-482h-90zM122 654q34 0 65.5 6.5t54.5 25.5l30 -42q-24 -34 -62.5 -49.5t-87.5 -15.5q-48 0 -86.5 15.5t-62.5 49.5l30 42q23 -19 54.5 -25.5t64.5 -6.5z" />
    <glyph glyph-name="Iogonek" unicode="&#x12e;" horiz-adv-x="274" 
d="M112 -213q-19 0 -37 5.5t-32.5 16.5t-23 29t-8.5 44q0 36 22.5 65t57.5 53v680h92v-680q-24 -12 -42 -24t-30 -25t-18 -26t-6 -26q0 -21 11.5 -32t33.5 -11q19 0 33.5 7t25.5 14l8 -62q-14 -10 -37 -19t-50 -9z" />
    <glyph glyph-name="iogonek" unicode="&#x12f;" horiz-adv-x="242" 
d="M93 -213q-19 0 -37 5.5t-32.5 16.5t-23 29t-8.5 44q0 38 23.5 67t60.5 54v479h90v-482q-53 -26 -75.5 -50.5t-22.5 -50.5q0 -21 11.5 -32t33.5 -11q19 0 33.5 7t25.5 14l8 -62q-14 -10 -37 -19t-50 -9zM64 634q0 26 15.5 41t41.5 15q27 0 42.5 -15t15.5 -41t-15.5 -41.5
t-42.5 -15.5q-26 0 -41.5 15.5t-15.5 41.5z" />
    <glyph glyph-name="Idotaccent" unicode="&#x130;" horiz-adv-x="274" 
d="M183 0h-92v680h92v-680zM80 816q0 26 15.5 41t41.5 15q27 0 42.5 -15t15.5 -41t-15.5 -41.5t-42.5 -15.5q-26 0 -41.5 15.5t-15.5 41.5z" />
    <glyph glyph-name="dotlessi" unicode="&#x131;" horiz-adv-x="242" 
d="M76 0v482h90v-482h-90z" />
    <glyph glyph-name="IJ" unicode="&#x132;" horiz-adv-x="738" 
d="M183 0h-92v680h92v-680zM340 122q11 -9 22.5 -18.5t25 -17t30.5 -12t38 -4.5q24 0 43.5 8.5t33 27.5t20.5 47.5t7 69.5v457h92v-464q0 -114 -52.5 -172.5t-143.5 -58.5q-51 0 -92.5 22.5t-69.5 50.5z" />
    <glyph glyph-name="ij" unicode="&#x133;" horiz-adv-x="484" 
d="M76 0v482h90v-482h-90zM64 634q0 26 15.5 41t41.5 15q27 0 42.5 -15t15.5 -41t-15.5 -41.5t-42.5 -15.5q-26 0 -41.5 15.5t-15.5 41.5zM408 482v-540q0 -74 -35.5 -114.5t-107.5 -40.5q-14 0 -34 2t-35 5v77q13 -2 30.5 -3.5t29.5 -1.5q32 0 47 16.5t15 56.5v543h90z
M306 634q0 26 15.5 41t41.5 15q27 0 42.5 -15t15.5 -41t-15.5 -41.5t-42.5 -15.5q-26 0 -41.5 15.5t-15.5 41.5z" />
    <glyph glyph-name="Jcircumflex" unicode="&#x134;" horiz-adv-x="464" 
d="M66 122q11 -9 22.5 -18.5t25 -17t30.5 -12t38 -4.5q24 0 43.5 8.5t33 27.5t20.5 47.5t7 69.5v457h92v-464q0 -114 -52.5 -172.5t-143.5 -58.5q-51 0 -92.5 22.5t-69.5 50.5zM479 762v-10h-82l-63 71l-63 -71h-82v10l94 121h102z" />
    <glyph glyph-name="jcircumflex" unicode="&#x135;" horiz-adv-x="242" 
d="M166 482v-540q0 -74 -35.5 -114.5t-107.5 -40.5q-14 0 -34 2t-35 5v77q13 -2 30.5 -3.5t29.5 -1.5q32 0 47 16.5t15 56.5v543h90zM265 589v-10h-82l-63 74l-63 -74h-82v10l94 121h102z" />
    <glyph glyph-name="Kcommaaccent" unicode="&#x136;" horiz-adv-x="601" 
d="M183 310v-310h-92v680h92v-334h2l279 334h107v-10l-287 -337l301 -323v-10h-113l-287 310h-2zM247 -208l20 141h93v-10l-42 -141h-71v10z" />
    <glyph glyph-name="kcommaaccent" unicode="&#x137;" horiz-adv-x="501" 
d="M166 223v-223h-90v700h90v-442h2l198 224h106v-7l-211 -232l219 -235v-8h-108l-204 223h-2zM184 -208l20 141h93v-10l-42 -141h-71v10z" />
    <glyph glyph-name="kgreenlandic" unicode="&#x138;" horiz-adv-x="501" 
d="M165 217v-217h-89v482h89v-234h2l201 234h102v-7l-210 -238l221 -230v-7h-107l-207 217h-2z" />
    <glyph glyph-name="Lacute" unicode="&#x139;" horiz-adv-x="524" 
d="M183 680v-597h311v-83h-403v680h92zM250 873l-75 -121h-77v10l54 121h98v-10z" />
    <glyph glyph-name="lacute" unicode="&#x13a;" horiz-adv-x="265" 
d="M238 -4q-11 -3 -26.5 -5.5t-32.5 -2.5q-54 0 -78 29.5t-24 81.5v601h90v-607q0 -13 4.5 -19.5t23.5 -6.5h43v-71zM236 873l-75 -121h-77v10l54 121h98v-10z" />
    <glyph glyph-name="Lcommaaccent" unicode="&#x13b;" horiz-adv-x="524" 
d="M183 680v-597h311v-83h-403v680h92zM232 -208l20 141h93v-10l-42 -141h-71v10z" />
    <glyph glyph-name="lcommaaccent" unicode="&#x13c;" horiz-adv-x="265" 
d="M238 -4q-11 -3 -26.5 -5.5t-32.5 -2.5q-54 0 -78 29.5t-24 81.5v601h90v-607q0 -13 4.5 -19.5t23.5 -6.5h43v-71zM91 -208l20 141h93v-10l-42 -141h-71v10z" />
    <glyph glyph-name="Lcaron" unicode="&#x13d;" horiz-adv-x="524" 
d="M183 680v-597h311v-83h-403v680h92zM289 539l20 141h93v-10l-42 -141h-71v10z" />
    <glyph glyph-name="lcaron" unicode="&#x13e;" horiz-adv-x="260" 
d="M238 -4q-11 -3 -26.5 -5.5t-32.5 -2.5q-54 0 -78 29.5t-24 81.5v601h90v-607q0 -13 4.5 -19.5t23.5 -6.5h43v-71zM212 539l20 141h93v-10l-42 -141h-71v10z" />
    <glyph glyph-name="Ldot" unicode="&#x13f;" horiz-adv-x="525" 
d="M183 680v-597h311v-83h-403v680h92zM323 352q0 29 17.5 47t46.5 18t46.5 -18t17.5 -47t-17.5 -47t-46.5 -18t-46.5 18t-17.5 47z" />
    <glyph glyph-name="ldot" unicode="&#x140;" horiz-adv-x="356" 
d="M238 -4q-11 -3 -26.5 -5.5t-32.5 -2.5q-54 0 -78 29.5t-24 81.5v601h90v-607q0 -13 4.5 -19.5t23.5 -6.5h43v-71zM240 352q0 29 17.5 47t46.5 18t46.5 -18t17.5 -47t-17.5 -47t-46.5 -18t-46.5 18t-17.5 47z" />
    <glyph glyph-name="Lslash" unicode="&#x141;" horiz-adv-x="538" 
d="M197 680v-263l107 59h10v-83l-117 -65v-245h311v-83h-403v277l-63 -34h-10v83l73 40v314h92z" />
    <glyph glyph-name="lslash" unicode="&#x142;" horiz-adv-x="319" 
d="M268 -4q-11 -3 -26.5 -5.5t-32.5 -2.5q-54 0 -78 29.5t-24 81.5v174l-73 -40h-10v83l83 45v339h90v-290l87 48h10v-83l-97 -53v-229q0 -13 4.5 -19.5t23.5 -6.5h43v-71z" />
    <glyph glyph-name="Nacute" unicode="&#x143;" horiz-adv-x="712" 
d="M529 145v535h92v-680h-95l-341 535h-2v-535h-92v680h94l342 -535h2zM458 873l-75 -121h-77v10l54 121h98v-10z" />
    <glyph glyph-name="nacute" unicode="&#x144;" horiz-adv-x="570" 
d="M140 482l11 -44h2q11 8 29 18t40.5 19t48.5 15.5t52 6.5q81 0 128.5 -46.5t47.5 -137.5v-313h-90v295q0 62 -26.5 92.5t-81.5 30.5q-19 0 -38.5 -4.5t-38 -11.5t-33.5 -15.5t-25 -15.5v-371h-90v482h64zM412 700l-85 -121h-77v10l64 121h98v-10z" />
    <glyph glyph-name="Ncommaaccent" unicode="&#x145;" horiz-adv-x="712" 
d="M529 145v535h92v-680h-95l-341 535h-2v-535h-92v680h94l342 -535h2zM289 -208l20 141h93v-10l-42 -141h-71v10z" />
    <glyph glyph-name="ncommaaccent" unicode="&#x146;" horiz-adv-x="570" 
d="M140 482l11 -44h2q11 8 29 18t40.5 19t48.5 15.5t52 6.5q81 0 128.5 -46.5t47.5 -137.5v-313h-90v295q0 62 -26.5 92.5t-81.5 30.5q-19 0 -38.5 -4.5t-38 -11.5t-33.5 -15.5t-25 -15.5v-371h-90v482h64zM218 -208l20 141h93v-10l-42 -141h-71v10z" />
    <glyph glyph-name="Ncaron" unicode="&#x147;" horiz-adv-x="712" 
d="M529 145v535h92v-680h-95l-341 535h-2v-535h-92v680h94l342 -535h2zM211 873v10h82l63 -71l63 71h82v-10l-94 -121h-102z" />
    <glyph glyph-name="ncaron" unicode="&#x148;" horiz-adv-x="570" 
d="M140 482l11 -44h2q11 8 29 18t40.5 19t48.5 15.5t52 6.5q81 0 128.5 -46.5t47.5 -137.5v-313h-90v295q0 62 -26.5 92.5t-81.5 30.5q-19 0 -38.5 -4.5t-38 -11.5t-33.5 -15.5t-25 -15.5v-371h-90v482h64zM148 700v10h82l63 -74l63 74h82v-10l-94 -121h-102z" />
    <glyph glyph-name="napostrophe" unicode="&#x149;" horiz-adv-x="570" 
d="M140 482l11 -44h2q11 8 29 18t40.5 19t48.5 15.5t52 6.5q81 0 128.5 -46.5t47.5 -137.5v-313h-90v295q0 62 -26.5 92.5t-81.5 30.5q-19 0 -38.5 -4.5t-38 -11.5t-33.5 -15.5t-25 -15.5v-371h-90v482h64zM-7 539l20 141h93v-10l-42 -141h-71v10z" />
    <glyph glyph-name="Eng" unicode="&#x14a;" horiz-adv-x="712" 
d="M529 152v528h92v-738q0 -74 -35.5 -114.5t-107.5 -40.5q-14 0 -34 2t-35 5v83q13 -2 30.5 -3.5t29.5 -1.5q32 0 46 13.5t14 53.5v61l-344 535h-2v-535h-92v680h94l342 -528h2z" />
    <glyph glyph-name="eng" unicode="&#x14b;" horiz-adv-x="570" 
d="M140 482l11 -44h2q11 8 29 18t40.5 19t48.5 15.5t52 6.5q81 0 128.5 -46.5t47.5 -137.5v-371q0 -74 -35.5 -114.5t-107.5 -40.5q-14 0 -34 2t-35 5v77q13 -2 30.5 -3.5t29.5 -1.5q32 0 47 16.5t15 56.5v356q0 62 -26.5 92.5t-81.5 30.5q-19 0 -38.5 -4.5t-38 -11.5
t-33.5 -15.5t-25 -15.5v-371h-90v482h64z" />
    <glyph glyph-name="Omacron" unicode="&#x14c;" horiz-adv-x="719" 
d="M153 340q0 -57 10 -106.5t34 -85.5t64 -57t99 -21q60 0 99.5 21t63 57t33.5 85.5t10 106.5t-10 106.5t-33.5 85.5t-63 57t-99.5 21q-59 0 -99 -21t-64 -57t-34 -85.5t-10 -106.5zM661 340q0 -75 -17 -140t-53 -113t-93 -75t-138 -27t-138 27t-93.5 75t-53.5 113t-17 140
t17 140t53.5 113t93.5 75t138 27t138 -27t93 -75t53 -113t17 -140zM233 777v74h265v-74h-265z" />
    <glyph glyph-name="omacron" unicode="&#x14d;" horiz-adv-x="574" 
d="M141 241q0 -37 7.5 -69.5t24.5 -56.5t44.5 -37.5t67.5 -13.5q41 0 69 13.5t45.5 37.5t25.5 56.5t8 69.5t-8 69.5t-25.5 56.5t-45.5 37.5t-69 13.5q-40 0 -67.5 -13.5t-44.5 -37.5t-24.5 -56.5t-7.5 -69.5zM525 241q0 -53 -13.5 -99.5t-42.5 -81t-74.5 -55t-109.5 -20.5
q-63 0 -108 20.5t-73.5 55t-41.5 81t-13 99.5q0 52 13 99t41.5 81.5t73.5 55t108 20.5q64 0 109.5 -20.5t74.5 -55t42.5 -81.5t13.5 -99zM156 597v74h265v-74h-265z" />
    <glyph glyph-name="Obreve" unicode="&#x14e;" horiz-adv-x="719" 
d="M153 340q0 -57 10 -106.5t34 -85.5t64 -57t99 -21q60 0 99.5 21t63 57t33.5 85.5t10 106.5t-10 106.5t-33.5 85.5t-63 57t-99.5 21q-59 0 -99 -21t-64 -57t-34 -85.5t-10 -106.5zM661 340q0 -75 -17 -140t-53 -113t-93 -75t-138 -27t-138 27t-93.5 75t-53.5 113t-17 140
t17 140t53.5 113t93.5 75t138 27t138 -27t93 -75t53 -113t17 -140zM364 838q34 0 65.5 6.5t54.5 25.5l30 -42q-24 -34 -62.5 -49.5t-87.5 -15.5q-48 0 -86.5 15.5t-62.5 49.5l30 42q23 -19 54.5 -25.5t64.5 -6.5z" />
    <glyph glyph-name="obreve" unicode="&#x14f;" horiz-adv-x="574" 
d="M141 241q0 -37 7.5 -69.5t24.5 -56.5t44.5 -37.5t67.5 -13.5q41 0 69 13.5t45.5 37.5t25.5 56.5t8 69.5t-8 69.5t-25.5 56.5t-45.5 37.5t-69 13.5q-40 0 -67.5 -13.5t-44.5 -37.5t-24.5 -56.5t-7.5 -69.5zM525 241q0 -53 -13.5 -99.5t-42.5 -81t-74.5 -55t-109.5 -20.5
q-63 0 -108 20.5t-73.5 55t-41.5 81t-13 99.5q0 52 13 99t41.5 81.5t73.5 55t108 20.5q64 0 109.5 -20.5t74.5 -55t42.5 -81.5t13.5 -99zM287 654q34 0 65.5 6.5t54.5 25.5l30 -42q-24 -34 -62.5 -49.5t-87.5 -15.5q-48 0 -86.5 15.5t-62.5 49.5l30 42q23 -19 54.5 -25.5
t64.5 -6.5z" />
    <glyph glyph-name="Ohungarumlaut" unicode="&#x150;" horiz-adv-x="719" 
d="M153 340q0 -57 10 -106.5t34 -85.5t64 -57t99 -21q60 0 99.5 21t63 57t33.5 85.5t10 106.5t-10 106.5t-33.5 85.5t-63 57t-99.5 21q-59 0 -99 -21t-64 -57t-34 -85.5t-10 -106.5zM661 340q0 -75 -17 -140t-53 -113t-93 -75t-138 -27t-138 27t-93.5 75t-53.5 113t-17 140
t17 140t53.5 113t93.5 75t138 27t138 -27t93 -75t53 -113t17 -140zM403 873l-85 -121h-77v10l64 121h98v-10zM571 873l-85 -121h-77v10l64 121h98v-10z" />
    <glyph glyph-name="ohungarumlaut" unicode="&#x151;" horiz-adv-x="574" 
d="M141 241q0 -37 7.5 -69.5t24.5 -56.5t44.5 -37.5t67.5 -13.5q41 0 69 13.5t45.5 37.5t25.5 56.5t8 69.5t-8 69.5t-25.5 56.5t-45.5 37.5t-69 13.5q-40 0 -67.5 -13.5t-44.5 -37.5t-24.5 -56.5t-7.5 -69.5zM525 241q0 -53 -13.5 -99.5t-42.5 -81t-74.5 -55t-109.5 -20.5
q-63 0 -108 20.5t-73.5 55t-41.5 81t-13 99.5q0 52 13 99t41.5 81.5t73.5 55t108 20.5q64 0 109.5 -20.5t74.5 -55t42.5 -81.5t13.5 -99zM338 700l-85 -121h-77v10l64 121h98v-10zM506 700l-85 -121h-77v10l64 121h98v-10z" />
    <glyph glyph-name="OE" unicode="&#x152;" horiz-adv-x="959" 
d="M360 695q59 0 106 -15h431v-83h-341v-209h309v-83h-309v-222h344v-83h-434q-23 -8 -50 -11.5t-56 -3.5q-81 0 -138 27t-93.5 75t-53.5 113t-17 140t17 140t53.5 113t93.5 75t138 27zM360 70q32 0 57.5 4t46.5 13v505q-21 9 -46.5 13.5t-57.5 4.5q-59 0 -99 -21t-64 -57
t-34 -85.5t-10 -106.5t10 -106.5t34 -85.5t64 -57t99 -21z" />
    <glyph glyph-name="oe" unicode="&#x153;" horiz-adv-x="922" 
d="M525 212q0 -33 11 -60t31 -47t48 -31t63 -11q50 0 84 13t60 30l35 -69q-32 -21 -78 -36.5t-109 -15.5q-68 0 -114.5 26.5t-75.5 68.5q-29 -42 -76.5 -68.5t-118.5 -26.5q-63 0 -108 20.5t-73.5 55t-41.5 81t-13 99.5q0 52 13 99t41.5 81.5t73.5 55t108 20.5
q71 0 118.5 -27t76.5 -69q29 41 73.5 68.5t107.5 27.5q57 0 97.5 -17.5t67 -46t38.5 -66.5t12 -78q0 -19 -2 -41.5t-4 -35.5h-345zM141 241q0 -37 7.5 -69.5t24.5 -56.5t44.5 -37.5t67.5 -13.5q41 0 69 13.5t45.5 37.5t25.5 56.5t8 69.5t-8 69.5t-25.5 56.5t-45.5 37.5
t-69 13.5q-40 0 -67.5 -13.5t-44.5 -37.5t-24.5 -56.5t-7.5 -69.5zM788 284q1 5 1 10.5v10.5q0 25 -8.5 46t-24.5 36.5t-40 24t-55 8.5q-30 0 -54.5 -10t-42 -28t-27.5 -43t-12 -55h263z" />
    <glyph glyph-name="Racute" unicode="&#x154;" horiz-adv-x="642" 
d="M91 0v680h256q104 0 164 -49t60 -145q0 -81 -44 -128t-119 -61l204 -281v-16h-100l-207 292h-122v-292h-92zM342 375q65 0 99.5 28t34.5 83t-34.5 83t-99.5 28h-159v-222h159zM412 873l-75 -121h-77v10l54 121h98v-10z" />
    <glyph glyph-name="racute" unicode="&#x155;" horiz-adv-x="358" 
d="M140 482l11 -52h2q12 15 26.5 27.5t31.5 21t36 13.5t40 5q14 0 28 -2t24 -5l-13 -81q-11 2 -24.5 3.5t-24.5 1.5q-47 0 -70.5 -19.5t-40.5 -50.5v-344h-90v482h64zM313 700l-85 -121h-77v10l64 121h98v-10z" />
    <glyph glyph-name="Rcommaaccent" unicode="&#x156;" horiz-adv-x="642" 
d="M91 0v680h256q104 0 164 -49t60 -145q0 -81 -44 -128t-119 -61l204 -281v-16h-100l-207 292h-122v-292h-92zM342 375q65 0 99.5 28t34.5 83t-34.5 83t-99.5 28h-159v-222h159zM249 -208l20 141h93v-10l-42 -141h-71v10z" />
    <glyph glyph-name="rcommaaccent" unicode="&#x157;" horiz-adv-x="358" 
d="M140 482l11 -52h2q12 15 26.5 27.5t31.5 21t36 13.5t40 5q14 0 28 -2t24 -5l-13 -81q-11 2 -24.5 3.5t-24.5 1.5q-47 0 -70.5 -19.5t-40.5 -50.5v-344h-90v482h64zM54 -208l20 141h93v-10l-42 -141h-71v10z" />
    <glyph glyph-name="Rcaron" unicode="&#x158;" horiz-adv-x="642" 
d="M91 0v680h256q104 0 164 -49t60 -145q0 -81 -44 -128t-119 -61l204 -281v-16h-100l-207 292h-122v-292h-92zM342 375q65 0 99.5 28t34.5 83t-34.5 83t-99.5 28h-159v-222h159zM151 873v10h82l63 -71l63 71h82v-10l-94 -121h-102z" />
    <glyph glyph-name="rcaron" unicode="&#x159;" horiz-adv-x="358" 
d="M140 482l11 -52h2q12 15 26.5 27.5t31.5 21t36 13.5t40 5q14 0 28 -2t24 -5l-13 -81q-11 2 -24.5 3.5t-24.5 1.5q-47 0 -70.5 -19.5t-40.5 -50.5v-344h-90v482h64zM59 700v10h82l63 -74l63 74h82v-10l-94 -121h-102z" />
    <glyph glyph-name="Sacute" unicode="&#x15a;" horiz-adv-x="536" 
d="M87 132q18 -14 38 -25.5t42 -19.5t46.5 -12.5t51.5 -4.5q57 0 92 26t35 83q0 22 -6 39t-19 30t-34.5 23.5t-51.5 21.5l-62 22q-75 26 -116.5 71.5t-41.5 112.5q0 42 15 78t43.5 62.5t69.5 41t94 14.5q26 0 53 -5t52 -13t46.5 -18t37.5 -20l-37 -74q-36 20 -74.5 32.5
t-77.5 12.5q-64 0 -95.5 -29.5t-31.5 -74.5q0 -36 18.5 -60t71.5 -43l66 -23q42 -15 74.5 -33.5t55 -42t34 -53t11.5 -66.5q0 -44 -16 -80.5t-45 -63t-70 -41.5t-91 -15q-36 0 -67.5 6t-58.5 16.5t-50.5 24t-42.5 27.5zM383 873l-75 -121h-77v10l54 121h98v-10z" />
    <glyph glyph-name="sacute" unicode="&#x15b;" horiz-adv-x="450" 
d="M75 103q31 -19 66 -30t76 -11q50 0 74.5 17.5t24.5 50.5q0 26 -17 41t-55 26l-58 16q-31 9 -56 20.5t-42 28t-26.5 38.5t-9.5 50q0 66 47.5 106.5t131.5 40.5q50 0 89 -9t76 -25l-28 -73q-32 15 -66 22.5t-66 7.5q-49 0 -71.5 -17.5t-22.5 -49.5q0 -24 15 -38t56 -25
l57 -15q31 -8 56 -20.5t43 -29.5t27.5 -40t9.5 -53q0 -33 -12.5 -60.5t-35.5 -46.5t-57 -29.5t-76 -10.5q-62 0 -103.5 12.5t-78.5 33.5l32 72v0zM350 700l-85 -121h-77v10l64 121h98v-10z" />
    <glyph glyph-name="Scircumflex" unicode="&#x15c;" horiz-adv-x="536" 
d="M87 132q18 -14 38 -25.5t42 -19.5t46.5 -12.5t51.5 -4.5q57 0 92 26t35 83q0 22 -6 39t-19 30t-34.5 23.5t-51.5 21.5l-62 22q-75 26 -116.5 71.5t-41.5 112.5q0 42 15 78t43.5 62.5t69.5 41t94 14.5q26 0 53 -5t52 -13t46.5 -18t37.5 -20l-37 -74q-36 20 -74.5 32.5
t-77.5 12.5q-64 0 -95.5 -29.5t-31.5 -74.5q0 -36 18.5 -60t71.5 -43l66 -23q42 -15 74.5 -33.5t55 -42t34 -53t11.5 -66.5q0 -44 -16 -80.5t-45 -63t-70 -41.5t-91 -15q-36 0 -67.5 6t-58.5 16.5t-50.5 24t-42.5 27.5zM420 762v-10h-82l-63 71l-63 -71h-82v10l94 121h102z
" />
    <glyph glyph-name="scircumflex" unicode="&#x15d;" horiz-adv-x="450" 
d="M75 103q31 -19 66 -30t76 -11q50 0 74.5 17.5t24.5 50.5q0 26 -17 41t-55 26l-58 16q-31 9 -56 20.5t-42 28t-26.5 38.5t-9.5 50q0 66 47.5 106.5t131.5 40.5q50 0 89 -9t76 -25l-28 -73q-32 15 -66 22.5t-66 7.5q-49 0 -71.5 -17.5t-22.5 -49.5q0 -24 15 -38t56 -25
l57 -15q31 -8 56 -20.5t43 -29.5t27.5 -40t9.5 -53q0 -33 -12.5 -60.5t-35.5 -46.5t-57 -29.5t-76 -10.5q-62 0 -103.5 12.5t-78.5 33.5l32 72v0zM378 589v-10h-82l-63 74l-63 -74h-82v10l94 121h102z" />
    <glyph glyph-name="Scedilla" unicode="&#x15e;" horiz-adv-x="537" 
d="M208 -73l21 60q-59 5 -104 26t-79 46l41 73q18 -14 38 -25.5t42 -19.5t46.5 -12.5t51.5 -4.5q57 0 92 26t35 83q0 22 -6 39t-19 30t-34.5 23.5t-51.5 21.5l-62 22q-75 26 -116.5 71.5t-41.5 112.5q0 42 15 78t43.5 62.5t69.5 41t94 14.5q26 0 53 -5t52 -13t46.5 -18
t37.5 -20l-37 -74q-36 20 -74.5 32.5t-77.5 12.5q-64 0 -95.5 -29.5t-31.5 -74.5q0 -36 18.5 -60t71.5 -43l66 -23q42 -15 74.5 -33.5t55 -42t34 -53t11.5 -66.5q0 -40 -13.5 -74.5t-38.5 -60.5t-60.5 -42.5t-78.5 -20.5l-14 -35q32 -5 51.5 -23t19.5 -49q0 -51 -33.5 -72
t-84.5 -21q-24 0 -44 4.5t-31 9.5l14 55q10 -4 23.5 -7.5t29.5 -3.5q23 0 35.5 7.5t12.5 27.5q0 22 -17.5 29.5t-43.5 7.5z" />
    <glyph glyph-name="scedilla" unicode="&#x15f;" horiz-adv-x="451" 
d="M170 -73l21 59q-48 4 -82 15.5t-66 29.5l32 72q31 -19 66 -30t76 -11q50 0 74.5 17.5t24.5 50.5q0 26 -17 41t-55 26l-58 16q-31 9 -56 20.5t-42 28t-26.5 38.5t-9.5 50q0 66 47.5 106.5t131.5 40.5q50 0 89 -9t76 -25l-28 -73q-32 15 -66 22.5t-66 7.5
q-49 0 -71.5 -17.5t-22.5 -49.5q0 -24 15 -38t56 -25l57 -15q31 -8 56 -20.5t43 -29.5t27.5 -40t9.5 -53q0 -60 -39 -98.5t-109 -46.5l-14 -35q32 -5 51.5 -23t19.5 -49q0 -51 -33.5 -72t-84.5 -21q-24 0 -44 4.5t-31 9.5l14 55q10 -4 23.5 -7.5t29.5 -3.5q23 0 35.5 7.5
t12.5 27.5q0 22 -17.5 29.5t-43.5 7.5z" />
    <glyph glyph-name="Scaron" unicode="&#x160;" horiz-adv-x="536" 
d="M87 132q18 -14 38 -25.5t42 -19.5t46.5 -12.5t51.5 -4.5q57 0 92 26t35 83q0 22 -6 39t-19 30t-34.5 23.5t-51.5 21.5l-62 22q-75 26 -116.5 71.5t-41.5 112.5q0 42 15 78t43.5 62.5t69.5 41t94 14.5q26 0 53 -5t52 -13t46.5 -18t37.5 -20l-37 -74q-36 20 -74.5 32.5
t-77.5 12.5q-64 0 -95.5 -29.5t-31.5 -74.5q0 -36 18.5 -60t71.5 -43l66 -23q42 -15 74.5 -33.5t55 -42t34 -53t11.5 -66.5q0 -44 -16 -80.5t-45 -63t-70 -41.5t-91 -15q-36 0 -67.5 6t-58.5 16.5t-50.5 24t-42.5 27.5zM133 873v10h82l63 -71l63 71h82v-10l-94 -121h-102z
" />
    <glyph glyph-name="scaron" unicode="&#x161;" horiz-adv-x="450" 
d="M75 103q31 -19 66 -30t76 -11q50 0 74.5 17.5t24.5 50.5q0 26 -17 41t-55 26l-58 16q-31 9 -56 20.5t-42 28t-26.5 38.5t-9.5 50q0 66 47.5 106.5t131.5 40.5q50 0 89 -9t76 -25l-28 -73q-32 15 -66 22.5t-66 7.5q-49 0 -71.5 -17.5t-22.5 -49.5q0 -24 15 -38t56 -25
l57 -15q31 -8 56 -20.5t43 -29.5t27.5 -40t9.5 -53q0 -33 -12.5 -60.5t-35.5 -46.5t-57 -29.5t-76 -10.5q-62 0 -103.5 12.5t-78.5 33.5l32 72v0zM81 700v10h82l63 -74l63 74h82v-10l-94 -121h-102z" />
    <glyph glyph-name="Tcommaaccent" unicode="&#x162;" horiz-adv-x="553" 
d="M215 -73l28 73h-12v597h-199v83h489v-83h-198v-597h-12l-22 -48q32 -5 51.5 -23t19.5 -49q0 -51 -33.5 -72t-84.5 -21q-24 0 -44 4.5t-31 9.5l14 55q10 -4 23.5 -7.5t29.5 -3.5q23 0 35.5 7.5t12.5 27.5q0 22 -17.5 29.5t-43.5 7.5z" />
    <glyph glyph-name="tcommaaccent" unicode="&#x163;" horiz-adv-x="367" 
d="M156 -73l24 68q-41 15 -53.5 49t-12.5 90v274h-86v54l86 20v112h90v-112h129v-74h-129v-287q0 -30 14 -43.5t39 -13.5q20 0 42 4.5t33 7.5v-77q-14 -4 -38.5 -9t-49.5 -5l-14 -33q32 -5 51.5 -23t19.5 -49q0 -51 -33.5 -72t-84.5 -21q-24 0 -44 4.5t-31 9.5l14 55
q10 -4 23.5 -7.5t29.5 -3.5q22 0 35 7.5t13 27.5q0 22 -17.5 29.5t-43.5 7.5z" />
    <glyph glyph-name="Tcaron" unicode="&#x164;" horiz-adv-x="553" 
d="M521 680v-83h-198v-597h-92v597h-199v83h489zM132 873v10h82l63 -71l63 71h82v-10l-94 -121h-102z" />
    <glyph glyph-name="tcaron" unicode="&#x165;" horiz-adv-x="365" 
d="M203 594v-112h129v-74h-129v-287q0 -30 14 -43.5t39 -13.5q20 0 42 4.5t33 7.5v-77q-14 -4 -39.5 -9t-55.5 -5q-60 0 -91.5 30.5t-31.5 88.5v304h-86v54l86 20v112h90zM286 539l20 141h93v-10l-42 -141h-71v10z" />
    <glyph glyph-name="Tbar" unicode="&#x166;" horiz-adv-x="553" 
d="M323 324v-324h-92v324h-126v83h126v190h-199v83h489v-83h-198v-190h127v-83h-127z" />
    <glyph glyph-name="tbar" unicode="&#x167;" horiz-adv-x="369" 
d="M206 234v-113q0 -30 14 -43.5t39 -13.5q20 0 42 4.5t33 7.5v-77q-14 -4 -39.5 -9t-55.5 -5q-60 0 -91.5 30.5t-31.5 88.5v130h-73v74h73v100h-86v54l86 20v112h90v-112h129v-74h-129v-100h102v-74h-102z" />
    <glyph glyph-name="Utilde" unicode="&#x168;" horiz-adv-x="694" 
d="M176 680v-421q0 -43 10 -78t31 -59.5t53 -38t77 -13.5t77 13.5t52.5 38t30.5 59.5t10 78v421h92v-431q0 -61 -15.5 -109.5t-47.5 -83t-81.5 -53t-117.5 -18.5q-69 0 -118.5 18.5t-81.5 53t-47.5 83.5t-15.5 110v430h92zM193 817q14 20 36 38.5t54 18.5q16 0 33 -6.5
t33.5 -14t32.5 -13.5t31 -6q17 0 31.5 9t27.5 26l27 -50q-18 -25 -39.5 -41t-50.5 -16q-17 0 -33 6t-32.5 13.5t-33 14t-32.5 6.5t-31 -9.5t-27 -25.5z" />
    <glyph glyph-name="utilde" unicode="&#x169;" horiz-adv-x="563" 
d="M161 482v-295q0 -62 24 -92.5t80 -30.5q19 0 38 4.5t36.5 11.5t32.5 15.5t25 15.5v371h90v-482h-64l-11 44h-2q-11 -8 -29 -18t-39.5 -19t-47 -15.5t-51.5 -6.5q-81 0 -126.5 46.5t-45.5 137.5v313h90zM129 634q14 20 36 38.5t54 18.5q16 0 33 -6.5t33.5 -14t32.5 -13.5
t31 -6q17 0 31.5 9t27.5 26l27 -50q-18 -25 -39.5 -41t-50.5 -16q-17 0 -33 6t-32.5 13.5t-33 14t-32.5 6.5t-31 -9.5t-27 -25.5z" />
    <glyph glyph-name="Umacron" unicode="&#x16a;" horiz-adv-x="694" 
d="M176 680v-421q0 -43 10 -78t31 -59.5t53 -38t77 -13.5t77 13.5t52.5 38t30.5 59.5t10 78v421h92v-431q0 -61 -15.5 -109.5t-47.5 -83t-81.5 -53t-117.5 -18.5q-69 0 -118.5 18.5t-81.5 53t-47.5 83.5t-15.5 110v430h92zM214 777v74h265v-74h-265z" />
    <glyph glyph-name="umacron" unicode="&#x16b;" horiz-adv-x="563" 
d="M161 482v-295q0 -62 24 -92.5t80 -30.5q19 0 38 4.5t36.5 11.5t32.5 15.5t25 15.5v371h90v-482h-64l-11 44h-2q-11 -8 -29 -18t-39.5 -19t-47 -15.5t-51.5 -6.5q-81 0 -126.5 46.5t-45.5 137.5v313h90zM150 597v74h265v-74h-265z" />
    <glyph glyph-name="Ubreve" unicode="&#x16c;" horiz-adv-x="694" 
d="M176 680v-421q0 -43 10 -78t31 -59.5t53 -38t77 -13.5t77 13.5t52.5 38t30.5 59.5t10 78v421h92v-431q0 -61 -15.5 -109.5t-47.5 -83t-81.5 -53t-117.5 -18.5q-69 0 -118.5 18.5t-81.5 53t-47.5 83.5t-15.5 110v430h92zM345 838q34 0 65.5 6.5t54.5 25.5l30 -42
q-24 -34 -62.5 -49.5t-87.5 -15.5q-48 0 -86.5 15.5t-62.5 49.5l30 42q23 -19 54.5 -25.5t64.5 -6.5z" />
    <glyph glyph-name="ubreve" unicode="&#x16d;" horiz-adv-x="563" 
d="M161 482v-295q0 -62 24 -92.5t80 -30.5q19 0 38 4.5t36.5 11.5t32.5 15.5t25 15.5v371h90v-482h-64l-11 44h-2q-11 -8 -29 -18t-39.5 -19t-47 -15.5t-51.5 -6.5q-81 0 -126.5 46.5t-45.5 137.5v313h90zM284 654q34 0 65.5 6.5t54.5 25.5l30 -42q-24 -34 -62.5 -49.5
t-87.5 -15.5q-48 0 -86.5 15.5t-62.5 49.5l30 42q23 -19 54.5 -25.5t64.5 -6.5z" />
    <glyph glyph-name="Uring" unicode="&#x16e;" horiz-adv-x="694" 
d="M176 680v-421q0 -43 10 -78t31 -59.5t53 -38t77 -13.5t77 13.5t52.5 38t30.5 59.5t10 78v421h92v-431q0 -61 -15.5 -109.5t-47.5 -83t-81.5 -53t-117.5 -18.5q-69 0 -118.5 18.5t-81.5 53t-47.5 83.5t-15.5 110v430h92zM304 828q0 -20 11.5 -30t31.5 -10t31.5 10t11.5 30
t-11.5 29.5t-31.5 9.5t-31.5 -9.5t-11.5 -29.5zM245 828q0 45 28.5 69t73.5 24t73 -24t28 -69t-28 -69.5t-73 -24.5t-73.5 24.5t-28.5 69.5z" />
    <glyph glyph-name="uring" unicode="&#x16f;" horiz-adv-x="563" 
d="M161 482v-295q0 -62 24 -92.5t80 -30.5q19 0 38 4.5t36.5 11.5t32.5 15.5t25 15.5v371h90v-482h-64l-11 44h-2q-11 -8 -29 -18t-39.5 -19t-47 -15.5t-51.5 -6.5q-81 0 -126.5 46.5t-45.5 137.5v313h90zM240 638q0 -20 11.5 -30t31.5 -10t31.5 10t11.5 30t-11.5 29.5
t-31.5 9.5t-31.5 -9.5t-11.5 -29.5zM181 638q0 45 28.5 69t73.5 24t73 -24t28 -69t-28 -69.5t-73 -24.5t-73.5 24.5t-28.5 69.5z" />
    <glyph glyph-name="Uhungarumlaut" unicode="&#x170;" horiz-adv-x="694" 
d="M176 680v-421q0 -43 10 -78t31 -59.5t53 -38t77 -13.5t77 13.5t52.5 38t30.5 59.5t10 78v421h92v-431q0 -61 -15.5 -109.5t-47.5 -83t-81.5 -53t-117.5 -18.5q-69 0 -118.5 18.5t-81.5 53t-47.5 83.5t-15.5 110v430h92zM382 873l-85 -121h-77v10l64 121h98v-10zM550 873
l-85 -121h-77v10l64 121h98v-10z" />
    <glyph glyph-name="uhungarumlaut" unicode="&#x171;" horiz-adv-x="563" 
d="M161 482v-295q0 -62 24 -92.5t80 -30.5q19 0 38 4.5t36.5 11.5t32.5 15.5t25 15.5v371h90v-482h-64l-11 44h-2q-11 -8 -29 -18t-39.5 -19t-47 -15.5t-51.5 -6.5q-81 0 -126.5 46.5t-45.5 137.5v313h90zM321 700l-85 -121h-77v10l64 121h98v-10zM489 700l-85 -121h-77v10
l64 121h98v-10z" />
    <glyph glyph-name="Uogonek" unicode="&#x172;" horiz-adv-x="695" 
d="M361 -213q-20 0 -38 5.5t-32.5 16.5t-23 29t-8.5 44q0 37 14 62.5t37 42.5q-117 10 -171 79.5t-54 183.5v430h92v-421q0 -43 10 -78t31 -59.5t53 -38t77 -13.5t77 13.5t52.5 38t30.5 59.5t10 78v421h92v-431q0 -55 -12.5 -100t-38.5 -78.5t-65.5 -54.5t-93.5 -28
q-27 -4 -46 -26t-19 -56q0 -50 46 -50q18 0 32.5 7t25.5 14l9 -62q-14 -10 -37 -19t-50 -9z" />
    <glyph glyph-name="uogonek" unicode="&#x173;" horiz-adv-x="563" 
d="M418 -213q-19 0 -37 5.5t-32.5 16.5t-23 29t-8.5 44q0 21 8 39.5t21.5 34.5t32 30.5t40.5 28.5l-7 29h-2q-11 -8 -29 -18t-39.5 -19t-47 -15.5t-51.5 -6.5q-81 0 -126.5 46.5t-45.5 137.5v313h90v-295q0 -62 24 -92.5t80 -30.5q19 0 38 4.5t36.5 11.5t32.5 15.5t25 15.5
v371h90v-482q-24 -12 -41.5 -24.5t-29.5 -25t-17.5 -25.5t-5.5 -26q0 -43 45 -43q19 0 33.5 7t25.5 14l8 -62q-14 -10 -37 -19t-50 -9z" />
    <glyph glyph-name="Wcircumflex" unicode="&#x174;" horiz-adv-x="977" 
d="M951 670l-196 -670h-94l-172 568h-2l-171 -568h-94l-197 670v10h96l149 -552h2l167 552h98l167 -552h2l149 552h96v-10zM633 762v-10h-82l-63 71l-63 -71h-82v10l94 121h102z" />
    <glyph glyph-name="wcircumflex" unicode="&#x175;" horiz-adv-x="818" 
d="M792 472l-164 -472h-87l-131 374h-2l-131 -374h-87l-164 472v10h91l119 -365h2l125 365h92l126 -365h2l118 365h91v-10zM554 589v-10h-82l-63 74l-63 -74h-82v10l94 121h102z" />
    <glyph glyph-name="Ycircumflex" unicode="&#x176;" horiz-adv-x="560" 
d="M108 680l171 -306h2l174 306h98v-10l-227 -383v-287h-92v287l-225 383v10h99zM426 762v-10h-82l-63 71l-63 -71h-82v10l94 121h102z" />
    <glyph glyph-name="ycircumflex" unicode="&#x177;" horiz-adv-x="505" 
d="M482 472l-202 -536q-29 -77 -69.5 -113t-97.5 -36q-20 0 -41.5 3.5t-35.5 6.5v76q15 -2 33.5 -4.5t35.5 -2.5q32 0 52 18t34 57l23 64l-194 467v10h90l143 -375h3l137 375h89v-10zM400 589v-10h-82l-63 74l-63 -74h-82v10l94 121h102z" />
    <glyph glyph-name="Ydieresis" unicode="&#x178;" horiz-adv-x="560" 
d="M108 680l171 -306h2l174 306h98v-10l-227 -383v-287h-92v287l-225 383v10h99zM114 816q0 26 15.5 41t41.5 15q27 0 42.5 -15t15.5 -41t-15.5 -41.5t-42.5 -15.5q-26 0 -41.5 15.5t-15.5 41.5zM333 816q0 26 15.5 41t41.5 15q27 0 42.5 -15t15.5 -41t-15.5 -41.5
t-42.5 -15.5q-26 0 -41.5 15.5t-15.5 41.5z" />
    <glyph glyph-name="Zacute" unicode="&#x179;" horiz-adv-x="552" 
d="M502 680v-74l-346 -521v-2h346v-83h-460v74l345 521v2h-327v83h442zM382 873l-75 -121h-77v10l54 121h98v-10z" />
    <glyph glyph-name="zacute" unicode="&#x17a;" horiz-adv-x="450" 
d="M403 482v-52l-249 -354v-2h249v-74h-363v52l249 354v2h-235v74h349zM352 700l-85 -121h-77v10l64 121h98v-10z" />
    <glyph glyph-name="Zdotaccent" unicode="&#x17b;" horiz-adv-x="552" 
d="M502 680v-74l-346 -521v-2h346v-83h-460v74l345 521v2h-327v83h442zM228 816q0 26 15.5 41t41.5 15q27 0 42.5 -15t15.5 -41t-15.5 -41.5t-42.5 -15.5q-26 0 -41.5 15.5t-15.5 41.5z" />
    <glyph glyph-name="zdotaccent" unicode="&#x17c;" horiz-adv-x="450" 
d="M403 482v-52l-249 -354v-2h249v-74h-363v52l249 354v2h-235v74h349zM176 634q0 26 15.5 41t41.5 15q27 0 42.5 -15t15.5 -41t-15.5 -41.5t-42.5 -15.5q-26 0 -41.5 15.5t-15.5 41.5z" />
    <glyph glyph-name="Zcaron" unicode="&#x17d;" horiz-adv-x="552" 
d="M502 680v-74l-346 -521v-2h346v-83h-460v74l345 521v2h-327v83h442zM139 873v10h82l63 -71l63 71h82v-10l-94 -121h-102z" />
    <glyph glyph-name="zcaron" unicode="&#x17e;" horiz-adv-x="450" 
d="M403 482v-52l-249 -354v-2h249v-74h-363v52l249 354v2h-235v74h349zM88 700v10h82l63 -74l63 74h82v-10l-94 -121h-102z" />
    <glyph glyph-name="florin" unicode="&#x192;" 
d="M156 296l13 74h102l29 168q15 84 58.5 120.5t118.5 36.5q15 0 34 -2t33 -4l-9 -80q-11 2 -28 4.5t-31 2.5q-36 0 -56.5 -15t-28.5 -56l-30 -175h122l-13 -74h-122l-63 -352q-14 -84 -57 -120.5t-118 -36.5q-15 0 -34.5 2t-32.5 4l9 80q10 -2 27.5 -4.5t31.5 -2.5
q35 0 55.5 15t27.5 56l64 359h-102z" />
    <glyph glyph-name="Aringacute" unicode="&#x1fa;" horiz-adv-x="631" 
d="M214 721q0 45 28.5 69t73.5 24t73 -24t28 -69q0 -27 -10.5 -47.5t-30.5 -31.5l243 -642h-96l-61 170h-293l-62 -170h-95l243 642q-20 12 -30.5 32t-10.5 47zM314 572l-115 -324h232l-115 324h-2zM273 721q0 -20 11.5 -30t31.5 -10t31.5 10t11.5 30t-11.5 29.5t-31.5 9.5
t-31.5 -9.5t-11.5 -29.5zM428.555 906.074l-74.5059 -98.002h-76.4922v8.09961l53.6436 98.002h97.3545v-8.09961z" />
    <glyph glyph-name="aringacute" unicode="&#x1fb;" horiz-adv-x="520" 
d="M234 616q0 -20 11.5 -27.5t31.5 -7.5t31.5 7.5t11.5 27.5t-11.5 27t-31.5 7t-31.5 -7t-11.5 -27zM175 616q0 45 28.5 66.5t73.5 21.5t73 -21.5t28 -66.5t-28 -67t-73 -22t-73.5 22t-28.5 67zM390 833l-75 -98h-76v8l53 98h98v-8zM283 218q-43 0 -71.5 -5.5t-46 -15.5
t-25 -24.5t-7.5 -32.5q0 -39 21.5 -57.5t61.5 -18.5q34 0 69 11t61 30v113h-63zM361 43q-33 -27 -74 -42.5t-89 -15.5q-33 0 -62 10t-50 28.5t-33 46.5t-12 64q0 44 17 73.5t47.5 47.5t72 25.5t91.5 7.5h77v25q0 52 -25 78.5t-83 26.5q-35 0 -72.5 -12.5t-65.5 -29.5l-34 68
q32 23 77 38t97 15q94 0 145 -47.5t51 -138.5v-218q0 -13 4.5 -19.5t23.5 -6.5h27v-71q-11 -3 -23 -5.5t-26 -2.5q-35 0 -53 15t-26 40h-2z" />
    <glyph glyph-name="AEacute" unicode="&#x1fc;" horiz-adv-x="920" 
d="M-9 10l409 670h458v-83h-341v-209h309v-83h-309v-222h344v-83h-436v170h-234l-102 -170h-98v10zM423 568l-187 -320h189v320h-2zM727 873l-75 -121h-77v10l54 121h98v-10z" />
    <glyph glyph-name="aeacute" unicode="&#x1fd;" horiz-adv-x="823" 
d="M443 212q0 -66 37 -107.5t107 -41.5q49 0 79.5 13t56.5 30l35 -69q-32 -21 -74 -36.5t-105 -15.5q-65 0 -109 29t-72 74q-15 -23 -34.5 -41.5t-44.5 -32.5t-55 -21.5t-66 -7.5q-33 0 -62 10t-50 28.5t-33 46.5t-12 64q0 44 16.5 73t45.5 46.5t70 25t90 7.5h92v27
q0 26 -7.5 45.5t-22 33t-36 20t-50.5 6.5q-35 0 -72.5 -12t-65.5 -29l-33 67q32 23 76.5 38t96.5 15q58 0 102.5 -19t67.5 -54q23 27 64.5 50t97.5 23q57 0 96 -17.5t63 -46t34.5 -66.5t10.5 -78q0 -19 -2 -41.5t-4 -35.5h-328zM689 284q1 5 1 10.5v10.5q0 25 -6.5 46
t-21 36.5t-36.5 24t-53 8.5q-30 0 -53.5 -10t-40 -28t-25.5 -43t-11 -55h246zM277 212q-43 0 -71.5 -4.5t-46 -13.5t-24.5 -22.5t-7 -31.5q0 -39 24 -57.5t64 -18.5q24 0 48.5 9t45 27.5t33.5 46.5t13 65h-79zM540 700l-85 -121h-77v10l64 121h98v-10z" />
    <glyph glyph-name="Oslashacute" unicode="&#x1fe;" horiz-adv-x="719" 
d="M98 10l42 63q-43 49 -62.5 117.5t-19.5 149.5q0 75 17 140t53.5 113t93.5 75t138 27q51 0 92.5 -11.5t73.5 -31.5l39 57l57 -39l-43 -63q43 -48 62.5 -117t19.5 -150q0 -75 -17 -140t-53 -113t-93 -75t-138 -27q-52 0 -93.5 11t-74.5 32l-36 -55zM566 340q0 55 -9 103
t-32 84l-283 -425q23 -16 51.5 -24t66.5 -8q60 0 99.5 21t63 57t33.5 85.5t10 106.5zM153 340q0 -55 9 -102.5t31 -83.5l284 424q-22 15 -51 23.5t-66 8.5q-59 0 -99 -21t-64 -57t-34 -85.5t-10 -106.5zM472 873l-75 -121h-77v10l54 121h98v-10z" />
    <glyph glyph-name="oslashacute" unicode="&#x1ff;" horiz-adv-x="574" 
d="M72 14l34 44q-30 35 -43.5 82t-13.5 101q0 52 13 99t41.5 81.5t73.5 55t108 20.5q41 0 74 -8.5t59 -24.5l34 46l55 -43l-37 -48q29 -35 42 -80.5t13 -97.5q0 -53 -13.5 -99.5t-42.5 -81t-74.5 -55t-109.5 -20.5q-38 0 -69.5 7.5t-56.5 21.5l-35 -45zM433 241
q0 29 -4.5 55t-15.5 48l-203 -263q31 -17 75 -17q41 0 69 13.5t45.5 37.5t25.5 56.5t8 69.5zM141 241q0 -32 5 -59t17 -50l204 265q-16 10 -36.5 15.5t-45.5 5.5q-40 0 -67.5 -13.5t-44.5 -37.5t-24.5 -56.5t-7.5 -69.5zM407 700l-85 -121h-77v10l64 121h98v-10z" />
    <glyph glyph-name="Scommaaccent" unicode="&#x218;" horiz-adv-x="536" 
d="M87 132q18 -14 38 -25.5t42 -19.5t46.5 -12.5t51.5 -4.5q57 0 92 26t35 83q0 22 -6 39t-19 30t-34.5 23.5t-51.5 21.5l-62 22q-75 26 -116.5 71.5t-41.5 112.5q0 42 15 78t43.5 62.5t69.5 41t94 14.5q26 0 53 -5t52 -13t46.5 -18t37.5 -20l-37 -74q-36 20 -74.5 32.5
t-77.5 12.5q-64 0 -95.5 -29.5t-31.5 -74.5q0 -36 18.5 -60t71.5 -43l66 -23q42 -15 74.5 -33.5t55 -42t34 -53t11.5 -66.5q0 -44 -16 -80.5t-45 -63t-70 -41.5t-91 -15q-36 0 -67.5 6t-58.5 16.5t-50.5 24t-42.5 27.5zM199 -208l20 141h93v-10l-42 -141h-71v10z" />
    <glyph glyph-name="scommaaccent" unicode="&#x219;" horiz-adv-x="450" 
d="M75 103q31 -19 66 -30t76 -11q50 0 74.5 17.5t24.5 50.5q0 26 -17 41t-55 26l-58 16q-31 9 -56 20.5t-42 28t-26.5 38.5t-9.5 50q0 66 47.5 106.5t131.5 40.5q50 0 89 -9t76 -25l-28 -73q-32 15 -66 22.5t-66 7.5q-49 0 -71.5 -17.5t-22.5 -49.5q0 -24 15 -38t56 -25
l57 -15q31 -8 56 -20.5t43 -29.5t27.5 -40t9.5 -53q0 -33 -12.5 -60.5t-35.5 -46.5t-57 -29.5t-76 -10.5q-62 0 -103.5 12.5t-78.5 33.5l32 72v0zM165 -208l20 141h93v-10l-42 -141h-71v10z" />
    <glyph glyph-name="uni021A" unicode="&#x21a;" horiz-adv-x="553" 
d="M521 680v-83h-198v-597h-92v597h-199v83h489zM210 -208l20 141h93v-10l-42 -141h-71v10z" />
    <glyph glyph-name="uni021B" unicode="&#x21b;" horiz-adv-x="365" 
d="M203 594v-112h129v-74h-129v-287q0 -30 14 -43.5t39 -13.5q20 0 42 4.5t33 7.5v-77q-14 -4 -39.5 -9t-55.5 -5q-60 0 -91.5 30.5t-31.5 88.5v304h-86v54l86 20v112h90zM140 -208l20 141h93v-10l-42 -141h-71v10z" />
    <glyph glyph-name="dotlessj" unicode="&#x237;" horiz-adv-x="242" 
d="M166 482v-540q0 -74 -35.5 -114.5t-107.5 -40.5q-14 0 -34 2t-35 5v77q13 -2 30.5 -3.5t29.5 -1.5q32 0 47 16.5t15 56.5v543h90z" />
    <glyph glyph-name="circumflex" unicode="&#x2c6;" 
d="M440 589v-10h-82l-63 74l-63 -74h-82v10l94 121h102z" />
    <glyph glyph-name="caron" unicode="&#x2c7;" 
d="M150 700v10h82l63 -74l63 74h82v-10l-94 -121h-102z" />
    <glyph glyph-name="uni02C9" unicode="&#x2c9;" 
d="M162 607v74h265v-74h-265z" />
    <glyph glyph-name="breve" unicode="&#x2d8;" 
d="M294 654q34 0 65.5 6.5t54.5 25.5l30 -42q-24 -34 -62.5 -49.5t-87.5 -15.5q-48 0 -86.5 15.5t-62.5 49.5l30 42q23 -19 54.5 -25.5t64.5 -6.5z" />
    <glyph glyph-name="dotaccent" unicode="&#x2d9;" 
d="M237 634q0 26 15.5 41t41.5 15q27 0 42.5 -15t15.5 -41t-15.5 -41.5t-42.5 -15.5q-26 0 -41.5 15.5t-15.5 41.5z" />
    <glyph glyph-name="ring" unicode="&#x2da;" 
d="M252 638q0 -20 11.5 -30t31.5 -10t31.5 10t11.5 30t-11.5 29.5t-31.5 9.5t-31.5 -9.5t-11.5 -29.5zM193 638q0 45 28.5 69t73.5 24t73 -24t28 -69t-28 -69.5t-73 -24.5t-73.5 24.5t-28.5 69.5z" />
    <glyph glyph-name="ogonek" unicode="&#x2db;" 
d="M301 -213q-19 0 -37 5.5t-32.5 16.5t-23 29t-8.5 44q0 24 10.5 45t29 39.5t42.5 35t51 32.5l36 -30q-21 -14 -38 -27t-29.5 -26t-19 -26t-6.5 -26q0 -21 11.5 -32t33.5 -11q19 0 33.5 7t25.5 14l8 -62q-14 -10 -37 -19t-50 -9z" />
    <glyph glyph-name="tilde" unicode="&#x2dc;" 
d="M142 634q14 20 36 38.5t54 18.5q16 0 33 -6.5t33.5 -14t32.5 -13.5t31 -6q17 0 31.5 9t27.5 26l27 -50q-18 -25 -39.5 -41t-50.5 -16q-17 0 -33 6t-32.5 13.5t-33 14t-32.5 6.5t-31 -9.5t-27 -25.5z" />
    <glyph glyph-name="hungarumlaut" unicode="&#x2dd;" 
d="M292 700l-85 -121h-77v10l64 121h98v-10zM460 700l-85 -121h-77v10l64 121h98v-10z" />
    <glyph glyph-name="tonos" unicode="&#x384;" 
d="M390 700l-50 -141h-69v10l29 141h90v-10z" />
    <glyph glyph-name="dieresistonos" unicode="&#x385;" 
d="M119 614q0 26 15.5 41t41.5 15q27 0 42.5 -15t15.5 -41t-15.5 -41.5t-42.5 -15.5q-26 0 -41.5 15.5t-15.5 41.5zM406 614q0 26 15.5 41t41.5 15q27 0 42.5 -15t15.5 -41t-15.5 -41.5t-42.5 -15.5q-26 0 -41.5 15.5t-15.5 41.5zM386 700l-45 -151h-72v10l24 151h93v-10z
" />
    <glyph glyph-name="Alphatonos" unicode="&#x386;" horiz-adv-x="655" 
d="M643 0h-96l-61 170h-293l-62 -170h-95l257 680h93zM338 572l-115 -324h232l-115 324h-2zM181 670l-45 -141h-70v10l24 141h91v-10z" />
    <glyph glyph-name="anoteleia" unicode="&#x387;" horiz-adv-x="264" 
d="M68 290q0 29 17.5 47t46.5 18t46.5 -18t17.5 -47t-17.5 -47t-46.5 -18t-46.5 18t-17.5 47z" />
    <glyph glyph-name="Epsilontonos" unicode="&#x388;" horiz-adv-x="687" 
d="M625 680v-83h-341v-209h309v-83h-309v-222h344v-83h-436v680h433zM133 670l-45 -141h-70v10l24 141h91v-10z" />
    <glyph glyph-name="Etatonos" unicode="&#x389;" horiz-adv-x="804" 
d="M621 305h-337v-305h-92v680h92v-292h337v292h92v-680h-92v305zM133 670l-45 -141h-70v10l24 141h91v-10z" />
    <glyph glyph-name="Iotatonos" unicode="&#x38a;" horiz-adv-x="375" 
d="M284 0h-92v680h92v-680zM133 670l-45 -141h-70v10l24 141h91v-10z" />
    <glyph glyph-name="Omicrontonos" unicode="&#x38c;" horiz-adv-x="796" 
d="M230 340q0 -57 10 -106.5t34 -85.5t64 -57t99 -21q60 0 99.5 21t63 57t33.5 85.5t10 106.5t-10 106.5t-33.5 85.5t-63 57t-99.5 21q-59 0 -99 -21t-64 -57t-34 -85.5t-10 -106.5zM738 340q0 -75 -17 -140t-53 -113t-93 -75t-138 -27t-138 27t-93.5 75t-53.5 113t-17 140
t17 140t53.5 113t93.5 75t138 27t138 -27t93 -75t53 -113t17 -140zM139 670l-45 -141h-70v10l24 141h91v-10z" />
    <glyph glyph-name="Upsilontonos" unicode="&#x38e;" horiz-adv-x="743" 
d="M291 680l171 -306h2l174 306h98v-10l-227 -383v-287h-92v287l-225 383v10h99zM145 670l-45 -141h-70v10l24 141h91v-10z" />
    <glyph glyph-name="Omegatonos" unicode="&#x38f;" horiz-adv-x="810" 
d="M147 83h135q-27 20 -52.5 48t-44.5 65t-30.5 81.5t-11.5 97.5q0 58 17 115.5t53.5 103t93.5 73.5t138 28t138 -28t93 -73.5t53 -103t17 -115.5q0 -53 -11.5 -97.5t-30.5 -81.5t-44.5 -65t-52.5 -48h135v-83h-243v79q35 24 63 52t48 63.5t30.5 78.5t10.5 97q0 45 -10 88.5
t-33.5 77t-63 54t-99.5 20.5q-59 0 -99 -20.5t-64 -54t-34 -76.5t-10 -89q0 -53 11 -96.5t30.5 -78.5t47.5 -63.5t63 -52.5v-79h-243v83zM141 670l-45 -141h-70v10l24 141h91v-10z" />
    <glyph glyph-name="iotadieresistonos" unicode="&#x390;" horiz-adv-x="271" 
d="M167 482v-364q0 -32 11.5 -43t32.5 -11q10 0 22 2t18 4v-77q-14 -4 -33 -6t-35 -2q-48 0 -77 29.5t-29 95.5v372h90zM-58 614q0 26 15.5 41t41.5 15q27 0 42.5 -15t15.5 -41t-15.5 -41.5t-42.5 -15.5q-26 0 -41.5 15.5t-15.5 41.5zM229 614q0 26 15.5 41t41.5 15
q27 0 42.5 -15t15.5 -41t-15.5 -41.5t-42.5 -15.5q-26 0 -41.5 15.5t-15.5 41.5zM209 700l-45 -151h-72v10l24 151h93v-10z" />
    <glyph glyph-name="Alpha" unicode="&#x391;" horiz-adv-x="631" 
d="M619 0h-96l-61 170h-293l-62 -170h-95l257 680h93zM314 572l-115 -324h232l-115 324h-2z" />
    <glyph glyph-name="Beta" unicode="&#x392;" horiz-adv-x="625" 
d="M183 83h158q31 0 56.5 5.5t43 18t27 33t9.5 51.5q0 62 -36.5 85.5t-100.5 23.5h-157v-217zM314 680q114 0 171.5 -43t57.5 -132q0 -59 -26 -98.5t-63 -53.5v-2q55 -17 86.5 -58.5t31.5 -108.5q0 -86 -57.5 -135t-163.5 -49h-260v680h223zM183 383h124q34 0 60.5 4.5
t44.5 16.5t27 32.5t9 53.5t-8.5 53.5t-26 32.5t-44 16.5t-62.5 4.5h-124v-214z" />
    <glyph glyph-name="Gamma" unicode="&#x393;" horiz-adv-x="524" 
d="M91 0v680h403v-83h-311v-597h-92z" />
    <glyph glyph-name="uni0394" unicode="&#x394;" horiz-adv-x="631" 
d="M618 0h-603v5l255 675h93l255 -675v-5zM315 572l-178 -489h359l-179 489h-2z" />
    <glyph glyph-name="Epsilon" unicode="&#x395;" horiz-adv-x="586" 
d="M524 680v-83h-341v-209h309v-83h-309v-222h344v-83h-436v680h433z" />
    <glyph glyph-name="Zeta" unicode="&#x396;" horiz-adv-x="552" 
d="M502 680v-74l-346 -521v-2h346v-83h-460v74l345 521v2h-327v83h442z" />
    <glyph glyph-name="Eta" unicode="&#x397;" horiz-adv-x="703" 
d="M520 305h-337v-305h-92v680h92v-292h337v292h92v-680h-92v305z" />
    <glyph glyph-name="Theta" unicode="&#x398;" horiz-adv-x="719" 
d="M237 305v83h245v-83h-245zM153 340q0 -57 10 -106.5t34 -85.5t64 -57t99 -21q60 0 99.5 21t63 57t33.5 85.5t10 106.5t-10 106.5t-33.5 85.5t-63 57t-99.5 21q-59 0 -99 -21t-64 -57t-34 -85.5t-10 -106.5zM661 340q0 -75 -17 -140t-53 -113t-93 -75t-138 -27t-138 27
t-93.5 75t-53.5 113t-17 140t17 140t53.5 113t93.5 75t138 27t138 -27t93 -75t53 -113t17 -140z" />
    <glyph glyph-name="Iota" unicode="&#x399;" horiz-adv-x="274" 
d="M183 0h-92v680h92v-680z" />
    <glyph glyph-name="Kappa" unicode="&#x39a;" horiz-adv-x="601" 
d="M183 310v-310h-92v680h92v-334h2l279 334h107v-10l-287 -337l301 -323v-10h-113l-287 310h-2z" />
    <glyph glyph-name="Lambda" unicode="&#x39b;" horiz-adv-x="619" 
d="M108 0h-95l250 680h93l250 -680h-96l-200 553h-2z" />
    <glyph glyph-name="Mu" unicode="&#x39c;" horiz-adv-x="827" 
d="M414 284l234 396h88v-680h-92v511h-2l-195 -340h-66l-196 340h-2v-511h-92v680h87l234 -396h2z" />
    <glyph glyph-name="Nu" unicode="&#x39d;" horiz-adv-x="712" 
d="M529 145v535h92v-680h-95l-341 535h-2v-535h-92v680h94l342 -535h2z" />
    <glyph glyph-name="Xi" unicode="&#x39e;" horiz-adv-x="581" 
d="M519 91v-91h-456v91h456zM98 301v91h386v-91h-386zM63 589v91h453v-91h-453z" />
    <glyph glyph-name="Omicron" unicode="&#x39f;" horiz-adv-x="719" 
d="M153 340q0 -57 10 -106.5t34 -85.5t64 -57t99 -21q60 0 99.5 21t63 57t33.5 85.5t10 106.5t-10 106.5t-33.5 85.5t-63 57t-99.5 21q-59 0 -99 -21t-64 -57t-34 -85.5t-10 -106.5zM661 340q0 -75 -17 -140t-53 -113t-93 -75t-138 -27t-138 27t-93.5 75t-53.5 113t-17 140
t17 140t53.5 113t93.5 75t138 27t138 -27t93 -75t53 -113t17 -140z" />
    <glyph glyph-name="Pi" unicode="&#x3a0;" horiz-adv-x="703" 
d="M520 597h-337v-597h-92v680h521v-680h-92v597z" />
    <glyph glyph-name="Rho" unicode="&#x3a1;" horiz-adv-x="593" 
d="M91 0v680h241q57 0 98.5 -14.5t68.5 -41.5t40 -65.5t13 -87.5t-13.5 -87.5t-40.5 -65.5t-68.5 -41.5t-97.5 -14.5h-149v-262h-92zM183 345h141q71 0 102 34.5t31 91.5t-31 91.5t-102 34.5h-141v-252z" />
    <glyph glyph-name="Sigma" unicode="&#x3a3;" horiz-adv-x="567" 
d="M42 73l188 273l-172 260v74h458v-83h-351l168 -247l-185 -267h368v-83h-474v73z" />
    <glyph glyph-name="Tau" unicode="&#x3a4;" horiz-adv-x="553" 
d="M521 680v-83h-198v-597h-92v597h-199v83h489z" />
    <glyph glyph-name="Upsilon" unicode="&#x3a5;" horiz-adv-x="560" 
d="M108 680l171 -306h2l174 306h98v-10l-227 -383v-287h-92v287l-225 383v10h99z" />
    <glyph glyph-name="Phi" unicode="&#x3a6;" horiz-adv-x="819" 
d="M452 617q81 -5 139 -28t95 -59.5t54.5 -85t17.5 -103.5q0 -56 -17.5 -104t-54.5 -85t-95 -60t-139 -28v-64h-92v64q-82 5 -138.5 28t-92 60t-51 85t-15.5 104q0 55 15.5 103.5t51 85t92 59.5t138.5 28v63h92v-63zM158 341q0 -41 9.5 -75t33 -59.5t62 -42t97.5 -20.5v394
q-59 -5 -97.5 -21t-62 -41.5t-33 -59.5t-9.5 -75zM663 341q0 41 -11 75t-36 59.5t-65.5 41.5t-98.5 21v-394q58 4 98.5 20.5t65.5 42t36 59.5t11 75z" />
    <glyph glyph-name="Chi" unicode="&#x3a7;" horiz-adv-x="588" 
d="M128 680l165 -277h2l166 277h99v-10l-208 -330l208 -330v-10h-99l-166 276h-2l-165 -276h-99v10l207 330l-207 330v10h99z" />
    <glyph glyph-name="Psi" unicode="&#x3a8;" horiz-adv-x="723" 
d="M407 240q86 1 125 47.5t39 131.5v261h92v-271q0 -120 -61.5 -186.5t-194.5 -67.5v-155h-92v155q-67 1 -115 18t-79 49.5t-46 80t-15 107.5v270h92v-261q0 -85 38.5 -131t124.5 -48v440h92v-440z" />
    <glyph glyph-name="uni03A9" unicode="&#x3a9;" horiz-adv-x="731" 
d="M69 83h135q-27 20 -52.5 48t-44.5 65t-30.5 81.5t-11.5 97.5q0 58 17 115.5t53.5 103t93.5 73.5t138 28t138 -28t93 -73.5t53 -103t17 -115.5q0 -53 -11.5 -97.5t-30.5 -81.5t-44.5 -65t-52.5 -48h135v-83h-243v79q35 24 63 52t48 63.5t30.5 78.5t10.5 97q0 45 -10 88.5
t-33.5 77t-63 54t-99.5 20.5q-59 0 -99 -20.5t-64 -54t-34 -76.5t-10 -89q0 -53 11 -96.5t30.5 -78.5t47.5 -63.5t63 -52.5v-79h-243v83z" />
    <glyph glyph-name="Iotadieresis" unicode="&#x3aa;" horiz-adv-x="274" 
d="M183 0h-92v680h92v-680zM-31 816q0 26 15.5 41t41.5 15q27 0 42.5 -15t15.5 -41t-15.5 -41.5t-42.5 -15.5q-26 0 -41.5 15.5t-15.5 41.5zM188 816q0 26 15.5 41t41.5 15q27 0 42.5 -15t15.5 -41t-15.5 -41.5t-42.5 -15.5q-26 0 -41.5 15.5t-15.5 41.5z" />
    <glyph glyph-name="Upsilondieresis" unicode="&#x3ab;" horiz-adv-x="560" 
d="M108 680l171 -306h2l174 306h98v-10l-227 -383v-287h-92v287l-225 383v10h99zM114 816q0 26 15.5 41t41.5 15q27 0 42.5 -15t15.5 -41t-15.5 -41.5t-42.5 -15.5q-26 0 -41.5 15.5t-15.5 41.5zM333 816q0 26 15.5 41t41.5 15q27 0 42.5 -15t15.5 -41t-15.5 -41.5
t-42.5 -15.5q-26 0 -41.5 15.5t-15.5 41.5z" />
    <glyph glyph-name="alphatonos" unicode="&#x3ac;" horiz-adv-x="606" 
d="M559 0h-90l-31 119h-1q-12 -28 -28 -52.5t-38 -42.5t-49.5 -28.5t-61.5 -10.5q-56 0 -95.5 20.5t-65 55t-37.5 81t-12 99.5q0 52 12 99t37 81.5t64.5 55t95.5 20.5q34 0 62 -10.5t50 -28.5t38 -42.5t28 -52.5h1l31 119h90l-70 -240zM407 241q-8 35 -21 67t-32 56.5
t-43 39t-52 14.5q-34 0 -56.5 -14t-36 -38t-19 -56.5t-5.5 -68.5t5.5 -68.5t19 -56.5t36 -38t56.5 -14q28 0 52 14.5t43 39t32 56.5t21 67zM390 700l-50 -141h-69v10l29 141h90v-10z" />
    <glyph glyph-name="epsilontonos" unicode="&#x3ad;" horiz-adv-x="483" 
d="M369 210h-132q-41 0 -68 -16.5t-27 -51.5q0 -42 32 -60t91 -18q45 0 84.5 7t78.5 23l21 -72q-34 -17 -79.5 -27t-104.5 -10q-51 0 -91 10.5t-68 29.5t-42.5 46t-14.5 59q0 46 22 75.5t64 43.5v2q-30 11 -50.5 38t-20.5 68q0 62 47.5 101t148.5 39q47 0 92.5 -9t81.5 -24
l-19 -72q-38 12 -75.5 19t-77.5 7q-62 0 -83.5 -19.5t-21.5 -52.5q0 -17 7.5 -28.5t20 -19t28 -11t30.5 -3.5h126v-74zM366 700l-50 -141h-69v10l29 141h90v-10z" />
    <glyph glyph-name="etatonos" unicode="&#x3ae;" horiz-adv-x="570" 
d="M140 482l11 -44h2q11 8 29 18t40.5 19t48.5 15.5t52 6.5q81 0 128.5 -46.5t47.5 -137.5v-511h-90v493q0 62 -26.5 92.5t-81.5 30.5q-19 0 -38.5 -4.5t-38 -11.5t-33.5 -15.5t-25 -15.5v-371h-90v482h64zM401 700l-50 -141h-69v10l29 141h90v-10z" />
    <glyph glyph-name="iotatonos" unicode="&#x3af;" horiz-adv-x="271" 
d="M167 482v-364q0 -32 11.5 -43t32.5 -11q10 0 22 2t18 4v-77q-14 -4 -33 -6t-35 -2q-48 0 -77 29.5t-29 95.5v372h90zM214 700l-50 -141h-69v10l29 141h90v-10z" />
    <glyph glyph-name="upsilondieresistonos" unicode="&#x3b0;" horiz-adv-x="550" 
d="M159 217q0 -78 32 -115.5t92 -37.5q59 0 91.5 41t32.5 139q0 57 -16 120.5t-37 117.5h97q8 -24 16.5 -52.5t15 -59.5t10.5 -63t4 -63q0 -134 -56.5 -196.5t-157.5 -62.5q-102 0 -158 55t-56 164v278h90v-265zM349 700l-50 -141h-69v10l29 141h90v-10z" />
    <glyph glyph-name="alpha" unicode="&#x3b1;" horiz-adv-x="606" 
d="M559 0h-90l-31 119h-1q-12 -28 -28 -52.5t-38 -42.5t-49.5 -28.5t-61.5 -10.5q-56 0 -95.5 20.5t-65 55t-37.5 81t-12 99.5q0 52 12 99t37 81.5t64.5 55t95.5 20.5q34 0 62 -10.5t50 -28.5t38 -42.5t28 -52.5h1l31 119h90l-70 -240zM407 241q-8 35 -21 67t-32 56.5
t-43 39t-52 14.5q-34 0 -56.5 -14t-36 -38t-19 -56.5t-5.5 -68.5t5.5 -68.5t19 -56.5t36 -38t56.5 -14q28 0 52 14.5t43 39t32 56.5t21 67z" />
    <glyph glyph-name="beta" unicode="&#x3b2;" horiz-adv-x="573" 
d="M168 25v-223h-92v688q0 110 51.5 162.5t145.5 52.5q49 0 86.5 -14.5t63 -39t38 -58.5t12.5 -73q0 -31 -8.5 -54t-21.5 -40.5t-29 -29.5t-32 -20v-2q25 -7 51 -21t47 -36t34 -53.5t13 -72.5q0 -48 -17 -86t-47 -64.5t-70 -41t-85 -14.5q-47 0 -82.5 13t-55.5 27h-2z
M168 106q22 -18 54 -30t81 -12q60 0 96 34t36 92q0 66 -36.5 103t-120.5 37h-41v74h46q50 0 74 31t24 79q0 50 -28 81t-77 31q-55 0 -81.5 -32.5t-26.5 -110.5v-377z" />
    <glyph glyph-name="gamma" unicode="&#x3b3;" horiz-adv-x="503" 
d="M198 -198v203l-176 467v10h90l132 -375h2q27 43 49 89t39 93t30 95.5t21 97.5h89v-10q-19 -109 -66.5 -225.5t-119.5 -243.5v-201h-90z" />
    <glyph glyph-name="delta" unicode="&#x3b4;" horiz-adv-x="570" 
d="M425 614q-20 5 -47 8.5t-52 3.5q-20 0 -35 -3.5t-26 -10.5t-16.5 -18t-5.5 -27q0 -21 21 -41.5t52 -43t67.5 -48.5t67.5 -58t52 -71t21 -88q0 -44 -13.5 -85.5t-42.5 -74t-74.5 -52.5t-109.5 -20q-63 0 -108 19.5t-73.5 52t-41.5 73.5t-13 84q0 88 46.5 147t123.5 94
q-29 23 -47 50t-18 62q0 34 13 60t36 43.5t55 26t71 8.5q11 0 24 -1t26.5 -2.5t25.5 -3.5t21 -4v-80zM432 217q0 34 -14 61t-36.5 50t-50.5 43l-56 40q-26 -14 -50 -33t-43 -43.5t-30.5 -54.5t-11.5 -66q0 -28 7.5 -55t24.5 -48t44.5 -34t67.5 -13q41 0 69 13.5t45.5 35
t25.5 49t8 55.5z" />
    <glyph glyph-name="epsilon" unicode="&#x3b5;" horiz-adv-x="483" 
d="M369 210h-132q-41 0 -68 -16.5t-27 -51.5q0 -42 32 -60t91 -18q45 0 84.5 7t78.5 23l21 -72q-34 -17 -79.5 -27t-104.5 -10q-51 0 -91 10.5t-68 29.5t-42.5 46t-14.5 59q0 46 22 75.5t64 43.5v2q-30 11 -50.5 38t-20.5 68q0 62 47.5 101t148.5 39q47 0 92.5 -9t81.5 -24
l-19 -72q-38 12 -75.5 19t-77.5 7q-62 0 -83.5 -19.5t-21.5 -52.5q0 -17 7.5 -28.5t20 -19t28 -11t30.5 -3.5h126v-74z" />
    <glyph glyph-name="zeta" unicode="&#x3b6;" horiz-adv-x="448" 
d="M431 700v-61q-81 -96 -138 -164.5t-92 -118.5t-51 -86t-16 -67q0 -38 19.5 -60.5t49 -37.5t63.5 -26t63.5 -26.5t49 -39t19.5 -62.5q0 -22 -6.5 -40.5t-17.5 -34.5t-25.5 -29t-30.5 -23l-61 48q6 4 14.5 11t16 16t13 19.5t5.5 22.5q0 20 -19.5 32.5t-49 24t-63.5 25
t-63.5 35.5t-49 56t-19.5 87q0 40 18 82.5t53 92.5t86 110.5t116 137.5v2h-256v74h372z" />
    <glyph glyph-name="eta" unicode="&#x3b7;" horiz-adv-x="570" 
d="M140 482l11 -44h2q11 8 29 18t40.5 19t48.5 15.5t52 6.5q81 0 128.5 -46.5t47.5 -137.5v-511h-90v493q0 62 -26.5 92.5t-81.5 30.5q-19 0 -38.5 -4.5t-38 -11.5t-33.5 -15.5t-25 -15.5v-371h-90v482h64z" />
    <glyph glyph-name="theta" unicode="&#x3b8;" horiz-adv-x="593" 
d="M539 345q0 -82 -13 -148.5t-42 -113.5t-75 -72.5t-111 -25.5q-66 0 -112.5 25.5t-75.5 72.5t-42.5 113.5t-13.5 148.5t13.5 148.5t42.5 113.5t75.5 72.5t112.5 25.5q65 0 111 -25.5t75 -72.5t42 -113.5t13 -148.5zM298 626q-41 0 -69 -18t-46 -50.5t-26.5 -79
t-10.5 -103.5h300q-2 57 -10 103.5t-25 79t-45 50.5t-68 18zM298 64q39 0 66 17t44.5 47.5t26.5 74.5t11 98h-299q2 -54 11 -98t27 -74.5t45.5 -47.5t67.5 -17z" />
    <glyph glyph-name="iota" unicode="&#x3b9;" horiz-adv-x="271" 
d="M167 482v-364q0 -32 11.5 -43t32.5 -11q10 0 22 2t18 4v-77q-14 -4 -33 -6t-35 -2q-48 0 -77 29.5t-29 95.5v372h90z" />
    <glyph glyph-name="kappa" unicode="&#x3ba;" horiz-adv-x="501" 
d="M165 217v-217h-89v482h89v-234h2l201 234h102v-7l-210 -238l221 -230v-7h-107l-207 217h-2z" />
    <glyph glyph-name="lambda" unicode="&#x3bb;" horiz-adv-x="505" 
d="M482 0h-89l-135 370h-3l-145 -370h-90v10l194 467l-33 91q-10 26 -25.5 42t-42.5 16q-11 0 -24.5 -2t-26.5 -5v76q15 5 31 7.5t36 2.5q28 0 49 -8t36.5 -23t27 -36t20.5 -46l220 -582v-10z" />
    <glyph glyph-name="uni03BC" unicode="&#x3bc;" horiz-adv-x="568" 
d="M77 -198v680h90v-320q0 -49 25 -73.5t79 -24.5q19 0 38 4.5t36.5 11.5t32.5 15.5t25 15.5v371h90v-482h-64l-11 44h-2q-11 -8 -29 -18t-39.5 -19t-47 -15.5t-51.5 -6.5q-23 0 -45.5 9t-36.5 27v-219h-90z" />
    <glyph glyph-name="nu" unicode="&#x3bd;" horiz-adv-x="502" 
d="M474 472q-19 -110 -67 -227t-121 -245h-86l-178 472v10h90l130 -375h2q27 43 49.5 89t40 93t30.5 95.5t21 97.5h89v-10z" />
    <glyph glyph-name="xi" unicode="&#x3be;" horiz-adv-x="478" 
d="M150 626h-100v74h393v-74h-143q-37 0 -63.5 -10t-44 -26.5t-25.5 -38t-8 -45.5q0 -23 8 -45t25 -39.5t43.5 -28t63.5 -10.5h89v-74h-81q-48 0 -79.5 -10t-51 -26.5t-27.5 -38t-8 -45.5q0 -38 22 -59t55.5 -34t72 -22.5t72 -23t55.5 -35.5t22 -61q0 -45 -25 -77t-59 -53
l-61 48q6 4 15.5 11t17.5 16t14 19.5t6 22.5q0 20 -22 31.5t-55.5 21t-72 21t-72 31.5t-55.5 52t-22 84q0 63 33.5 106.5t85.5 62.5v2q-18 7 -36 21.5t-32.5 34t-23.5 43t-9 49.5q0 46 22.5 75.5t60.5 47.5v2z" />
    <glyph glyph-name="omicron" unicode="&#x3bf;" horiz-adv-x="574" 
d="M141 241q0 -37 7.5 -69.5t24.5 -56.5t44.5 -37.5t67.5 -13.5q41 0 69 13.5t45.5 37.5t25.5 56.5t8 69.5t-8 69.5t-25.5 56.5t-45.5 37.5t-69 13.5q-40 0 -67.5 -13.5t-44.5 -37.5t-24.5 -56.5t-7.5 -69.5zM525 241q0 -53 -13.5 -99.5t-42.5 -81t-74.5 -55t-109.5 -20.5
q-63 0 -108 20.5t-73.5 55t-41.5 81t-13 99.5q0 52 13 99t41.5 81.5t73.5 55t108 20.5q64 0 109.5 -20.5t74.5 -55t42.5 -81.5t13.5 -99z" />
    <glyph glyph-name="pi" unicode="&#x3c0;" horiz-adv-x="576" 
d="M554 482v-74h-96v-290q0 -32 11.5 -43t32.5 -11q10 0 22 2t18 4v-77q-14 -4 -33 -6t-35 -2q-48 0 -77 29.5t-29 95.5v298h-173v-408h-90v408h-96v74h545z" />
    <glyph glyph-name="rho" unicode="&#x3c1;" horiz-adv-x="568" 
d="M160 111q22 -20 48.5 -33.5t71.5 -13.5q41 0 69 14t45.5 38t25 56.5t7.5 68.5t-7.5 68.5t-24 56.5t-43.5 38t-66 14q-56 0 -91 -37t-35 -120v-150zM68 -198v454q0 66 17.5 111.5t47.5 74.5t69.5 42t83.5 13q63 0 107 -20.5t72 -55t41 -81.5t13 -99q0 -53 -12.5 -99.5
t-38.5 -81t-66.5 -55t-96.5 -20.5q-50 0 -86.5 15t-56.5 30h-2v-228h-92z" />
    <glyph glyph-name="sigma1" unicode="&#x3c2;" horiz-adv-x="463" 
d="M413 392q-22 9 -57 17.5t-70 8.5q-38 0 -65.5 -15t-45.5 -40t-26.5 -57t-8.5 -65q0 -42 20 -68t50 -44.5t65.5 -33t65.5 -32.5t50 -43.5t20 -65.5q0 -22 -6.5 -41t-17.5 -35.5t-25.5 -30t-30.5 -23.5l-61 48q6 4 14.5 11t16 16t13 19.5t5.5 22.5q0 23 -20 38.5t-50 30
t-65.5 31t-65.5 42t-50 63.5t-20 95t16 104t46 80.5t74 52.5t101 19q38 0 79 -10.5t72 -24.5l-23 -70v0z" />
    <glyph glyph-name="sigma" unicode="&#x3c3;" horiz-adv-x="587" 
d="M437 406q46 -27 67.5 -74t21.5 -98t-13.5 -96.5t-42.5 -79.5t-74.5 -53.5t-109.5 -19.5q-63 0 -108 19.5t-73.5 53.5t-41.5 79.5t-13 96.5t13 96.5t41.5 79t73.5 53t108 19.5h255v-74h-104v-2zM142 234q0 -36 7.5 -67t24.5 -54t44.5 -36t67.5 -13q41 0 69 13t45.5 36
t25.5 54t8 67t-8 67t-25.5 53.5t-45.5 35.5t-69 13q-40 0 -67.5 -13t-44.5 -35.5t-24.5 -53.5t-7.5 -67z" />
    <glyph glyph-name="tau" unicode="&#x3c4;" horiz-adv-x="462" 
d="M430 482v-74h-169v-287q0 -30 14 -43.5t39 -13.5q20 0 42 4.5t33 7.5v-77q-14 -4 -39.5 -9t-55.5 -5q-60 0 -91.5 30.5t-31.5 88.5v304h-146v74h405z" />
    <glyph glyph-name="upsilon" unicode="&#x3c5;" horiz-adv-x="550" 
d="M159 217q0 -78 32 -115.5t92 -37.5q59 0 91.5 41t32.5 139q0 57 -16 120.5t-37 117.5h97q8 -24 16.5 -52.5t15 -59.5t10.5 -63t4 -63q0 -134 -56.5 -196.5t-157.5 -62.5q-102 0 -158 55t-56 164v278h90v-265z" />
    <glyph glyph-name="phi" unicode="&#x3c6;" horiz-adv-x="681" 
d="M211 482q-15 -27 -28 -57t-22 -60t-14.5 -59.5t-5.5 -55.5q0 -36 7.5 -68t25 -57t46.5 -42t73 -22v236q0 97 39.5 148.5t118.5 51.5q48 0 82 -19t55.5 -51.5t32 -76.5t10.5 -93q0 -54 -13 -100.5t-42 -82t-76.5 -57.5t-116.5 -28v-187h-90v187q-68 5 -114 27.5t-74.5 57
t-41 79.5t-12.5 96q0 29 5.5 60t14 61.5t19.5 59t22 52.5h99zM383 62q45 6 75 22.5t48 41.5t25.5 58t7.5 72q0 32 -5 61t-15.5 51.5t-27 36t-40.5 13.5q-22 0 -35.5 -8.5t-20.5 -25t-9.5 -40.5t-2.5 -55v-227z" />
    <glyph glyph-name="chi" unicode="&#x3c7;" horiz-adv-x="505" 
d="M108 482l144 -269h3l144 269h90v-10l-182 -330l182 -330v-10h-89l-145 268h-3l-144 -268h-90v10l182 330l-182 330v10h90z" />
    <glyph glyph-name="psi" unicode="&#x3c8;" horiz-adv-x="697" 
d="M396 62q34 0 63.5 10t50.5 32t33 56.5t12 83.5q0 57 -18 120.5t-42 117.5h99q9 -24 18 -52.5t16.5 -59.5t12 -63t4.5 -63q0 -67 -18.5 -115.5t-51.5 -79.5t-79 -46t-100 -15v-186h-90v186q-54 0 -97.5 13.5t-74.5 40.5t-48 67.5t-17 94.5v278h90v-265q0 -78 40 -116.5
t107 -38.5v638h90v-638z" />
    <glyph glyph-name="omega" unicode="&#x3c9;" horiz-adv-x="825" 
d="M694 482q18 -24 32.5 -52.5t25 -59.5t16.5 -63t6 -63q0 -134 -53.5 -196.5t-149.5 -62.5q-54 0 -93 23.5t-64 71.5h-2q-26 -48 -65.5 -71.5t-92.5 -23.5q-96 0 -149.5 62.5t-53.5 196.5q0 31 5.5 63t16 63t25.5 59.5t33 52.5h96v-10q-39 -54 -62.5 -113t-23.5 -115
q0 -98 30 -139t83 -41q54 0 84 37.5t30 115.5v142h90v-142q0 -78 29.5 -115.5t83.5 -37.5t83.5 41t29.5 139q0 56 -24 115t-62 113v10h96z" />
    <glyph glyph-name="iotadieresis" unicode="&#x3ca;" horiz-adv-x="271" 
d="M167 482v-364q0 -32 11.5 -43t32.5 -11q10 0 22 2t18 4v-77q-14 -4 -33 -6t-35 -2q-48 0 -77 29.5t-29 95.5v372h90zM-31 634q0 26 15.5 41t41.5 15q27 0 42.5 -15t15.5 -41t-15.5 -41.5t-42.5 -15.5q-26 0 -41.5 15.5t-15.5 41.5zM168 634q0 26 15.5 41t41.5 15
q27 0 42.5 -15t15.5 -41t-15.5 -41.5t-42.5 -15.5q-26 0 -41.5 15.5t-15.5 41.5z" />
    <glyph glyph-name="upsilondieresis" unicode="&#x3cb;" horiz-adv-x="550" 
d="M159 217q0 -78 32 -115.5t92 -37.5q59 0 91.5 41t32.5 139q0 57 -16 120.5t-37 117.5h97q8 -24 16.5 -52.5t15 -59.5t10.5 -63t4 -63q0 -134 -56.5 -196.5t-157.5 -62.5q-102 0 -158 55t-56 164v278h90v-265zM117 634q0 26 15.5 41t41.5 15q27 0 42.5 -15t15.5 -41
t-15.5 -41.5t-42.5 -15.5q-26 0 -41.5 15.5t-15.5 41.5zM316 634q0 26 15.5 41t41.5 15q27 0 42.5 -15t15.5 -41t-15.5 -41.5t-42.5 -15.5q-26 0 -41.5 15.5t-15.5 41.5z" />
    <glyph glyph-name="omicrontonos" unicode="&#x3cc;" horiz-adv-x="574" 
d="M141 241q0 -37 7.5 -69.5t24.5 -56.5t44.5 -37.5t67.5 -13.5q41 0 69 13.5t45.5 37.5t25.5 56.5t8 69.5t-8 69.5t-25.5 56.5t-45.5 37.5t-69 13.5q-40 0 -67.5 -13.5t-44.5 -37.5t-24.5 -56.5t-7.5 -69.5zM525 241q0 -53 -13.5 -99.5t-42.5 -81t-74.5 -55t-109.5 -20.5
q-63 0 -108 20.5t-73.5 55t-41.5 81t-13 99.5q0 52 13 99t41.5 81.5t73.5 55t108 20.5q64 0 109.5 -20.5t74.5 -55t42.5 -81.5t13.5 -99zM382 700l-50 -141h-69v10l29 141h90v-10z" />
    <glyph glyph-name="upsilontonos" unicode="&#x3cd;" horiz-adv-x="550" 
d="M159 217q0 -78 32 -115.5t92 -37.5q59 0 91.5 41t32.5 139q0 57 -16 120.5t-37 117.5h97q8 -24 16.5 -52.5t15 -59.5t10.5 -63t4 -63q0 -134 -56.5 -196.5t-157.5 -62.5q-102 0 -158 55t-56 164v278h90v-265zM350 700l-50 -141h-69v10l29 141h90v-10z" />
    <glyph glyph-name="omegatonos" unicode="&#x3ce;" horiz-adv-x="825" 
d="M694 482q18 -24 32.5 -52.5t25 -59.5t16.5 -63t6 -63q0 -134 -53.5 -196.5t-149.5 -62.5q-54 0 -93 23.5t-64 71.5h-2q-26 -48 -65.5 -71.5t-92.5 -23.5q-96 0 -149.5 62.5t-53.5 196.5q0 31 5.5 63t16 63t25.5 59.5t33 52.5h96v-10q-39 -54 -62.5 -113t-23.5 -115
q0 -98 30 -139t83 -41q54 0 84 37.5t30 115.5v142h90v-142q0 -78 29.5 -115.5t83.5 -37.5t83.5 41t29.5 139q0 56 -24 115t-62 113v10h96zM513 700l-50 -141h-69v10l29 141h90v-10z" />
    <glyph glyph-name="uni0400" unicode="&#x400;" horiz-adv-x="586" 
d="M524 680v-83h-341v-209h309v-83h-309v-222h344v-83h-436v680h433zM201 883h98l54 -121v-10h-77l-75 121v10z" />
    <glyph glyph-name="uni0401" unicode="&#x401;" horiz-adv-x="586" 
d="M524 680v-83h-341v-209h309v-83h-309v-222h344v-83h-436v680h433zM140 816q0 26 15.5 41t41.5 15q27 0 42.5 -15t15.5 -41t-15.5 -41.5t-42.5 -15.5q-26 0 -41.5 15.5t-15.5 41.5zM359 816q0 26 15.5 41t41.5 15q27 0 42.5 -15t15.5 -41t-15.5 -41.5t-42.5 -15.5
q-26 0 -41.5 15.5t-15.5 41.5z" />
    <glyph glyph-name="uni0402" unicode="&#x402;" horiz-adv-x="694" 
d="M450 -57q24 27 44.5 56.5t35 61t23 64t8.5 64.5q0 33 -9.5 58.5t-27.5 43t-43.5 26.5t-57.5 9q-38 0 -77 -8t-77 -19v-299h-92v597h-148v83h453v-83h-213v-215q35 11 79.5 19t89.5 8q51 0 91.5 -15t68.5 -43t43 -69t15 -93q0 -44 -11.5 -83.5t-31 -76.5t-45 -71
t-53.5 -66z" />
    <glyph glyph-name="uni0403" unicode="&#x403;" horiz-adv-x="554" 
d="M524 680v-83h-341v-597h-92v680h433zM420 873l-75 -121h-77v10l54 121h98v-10z" />
    <glyph glyph-name="uni0404" unicode="&#x404;" horiz-adv-x="596" 
d="M57 340q0 79 20.5 144.5t60 112.5t98 72.5t135.5 25.5q44 0 90 -11.5t91 -32.5l-25 -73q-43 19 -80.5 25.5t-75.5 6.5q-104 0 -157 -61t-61 -166h299v-83h-299q8 -107 60.5 -168.5t157.5 -61.5q38 0 75.5 6.5t80.5 25.5l25 -73q-45 -21 -91 -32.5t-90 -11.5
q-77 0 -135.5 25.5t-98 72.5t-60 112t-20.5 145z" />
    <glyph glyph-name="uni0405" unicode="&#x405;" horiz-adv-x="536" 
d="M87 132q18 -14 38 -25.5t42 -19.5t46.5 -12.5t51.5 -4.5q57 0 92 26t35 83q0 22 -6 39t-19 30t-34.5 23.5t-51.5 21.5l-62 22q-75 26 -116.5 71.5t-41.5 112.5q0 42 15 78t43.5 62.5t69.5 41t94 14.5q26 0 53 -5t52 -13t46.5 -18t37.5 -20l-37 -74q-36 20 -74.5 32.5
t-77.5 12.5q-64 0 -95.5 -29.5t-31.5 -74.5q0 -36 18.5 -60t71.5 -43l66 -23q42 -15 74.5 -33.5t55 -42t34 -53t11.5 -66.5q0 -44 -16 -80.5t-45 -63t-70 -41.5t-91 -15q-36 0 -67.5 6t-58.5 16.5t-50.5 24t-42.5 27.5z" />
    <glyph glyph-name="uni0406" unicode="&#x406;" horiz-adv-x="274" 
d="M183 0h-92v680h92v-680z" />
    <glyph glyph-name="uni0407" unicode="&#x407;" horiz-adv-x="274" 
d="M183 0h-92v680h92v-680zM-31 816q0 26 15.5 41t41.5 15q27 0 42.5 -15t15.5 -41t-15.5 -41.5t-42.5 -15.5q-26 0 -41.5 15.5t-15.5 41.5zM188 816q0 26 15.5 41t41.5 15q27 0 42.5 -15t15.5 -41t-15.5 -41.5t-42.5 -15.5q-26 0 -41.5 15.5t-15.5 41.5z" />
    <glyph glyph-name="uni0408" unicode="&#x408;" horiz-adv-x="464" 
d="M66 122q11 -9 22.5 -18.5t25 -17t30.5 -12t38 -4.5q24 0 43.5 8.5t33 27.5t20.5 47.5t7 69.5v457h92v-464q0 -114 -52.5 -172.5t-143.5 -58.5q-51 0 -92.5 22.5t-69.5 50.5z" />
    <glyph glyph-name="uni0409" unicode="&#x409;" horiz-adv-x="972" 
d="M548 680v-271h158q107 0 165 -53.5t58 -151.5q0 -96 -58 -150t-165 -54h-250v597h-224l-10 -230q-4 -87 -11.5 -149t-19 -104t-28 -66.5t-38.5 -37.5t-50 -16.5t-62 -3.5v83q29 0 50 6.5t35 35t22.5 87.5t13.5 165l13 313h401zM548 83h148q63 0 100.5 27.5t37.5 93.5
t-37 94t-101 28h-148v-243z" />
    <glyph glyph-name="uni040A" unicode="&#x40a;" horiz-adv-x="997" 
d="M573 680v-271h158q107 0 165 -53.5t58 -151.5q0 -96 -58 -150t-165 -54h-250v326h-298v-326h-92v680h92v-271h298v271h92zM573 83h148q63 0 100.5 27.5t37.5 93.5t-37 94t-101 28h-148v-243z" />
    <glyph glyph-name="uni040B" unicode="&#x40b;" horiz-adv-x="716" 
d="M568 0v261q0 62 -31.5 92.5t-100.5 30.5q-22 0 -46.5 -3.5t-47 -8t-41.5 -9.5t-31 -8v-355h-92v597h-149v83h453v-83h-212v-157q27 8 76 17.5t109 9.5q46 0 84 -11.5t65 -35t41.5 -58t14.5 -79.5v-283h-92z" />
    <glyph glyph-name="uni040C" unicode="&#x40c;" horiz-adv-x="601" 
d="M183 310v-310h-92v680h92v-334h2l279 334h107v-10l-287 -337l301 -323v-10h-113l-287 310h-2zM421 873l-75 -121h-77v10l54 121h98v-10z" />
    <glyph glyph-name="uni040D" unicode="&#x40d;" horiz-adv-x="702" 
d="M185 135l322 545h104v-680h-92v545h-2l-321 -545h-105v680h92v-545h2zM239 883h98l54 -121v-10h-77l-75 121v10z" />
    <glyph glyph-name="uni040E" unicode="&#x40e;" horiz-adv-x="553" 
d="M542 670l-220 -519q-17 -40 -36 -68.5t-43 -47t-55 -27t-72 -8.5h-38v84h29q23 0 40.5 3t32 12t26.5 24.5t23 40.5l16 35l-224 471v10h96l173 -380h3l154 380h95v-10zM295 838q34 0 65.5 6.5t54.5 25.5l30 -42q-24 -34 -62.5 -49.5t-87.5 -15.5q-48 0 -86.5 15.5
t-62.5 49.5l30 42q23 -19 54.5 -25.5t64.5 -6.5z" />
    <glyph glyph-name="uni040F" unicode="&#x40f;" horiz-adv-x="693" 
d="M310 -141l-9 141h-210v680h92v-597h327v597h92v-680h-212l-8 -141h-72z" />
    <glyph glyph-name="uni0410" unicode="&#x410;" horiz-adv-x="631" 
d="M619 0h-96l-61 170h-293l-62 -170h-95l257 680h93zM314 572l-115 -324h232l-115 324h-2z" />
    <glyph glyph-name="uni0411" unicode="&#x411;" horiz-adv-x="613" 
d="M523 680v-83h-340v-188h158q107 0 165 -53.5t58 -151.5q0 -96 -58 -150t-165 -54h-250v680h432zM183 83h148q63 0 100.5 27.5t37.5 93.5t-37 94t-101 28h-148v-243z" />
    <glyph glyph-name="uni0412" unicode="&#x412;" horiz-adv-x="625" 
d="M183 83h158q31 0 56.5 5.5t43 18t27 33t9.5 51.5q0 62 -36.5 85.5t-100.5 23.5h-157v-217zM314 680q114 0 171.5 -43t57.5 -132q0 -59 -26 -98.5t-63 -53.5v-2q55 -17 86.5 -58.5t31.5 -108.5q0 -86 -57.5 -135t-163.5 -49h-260v680h223zM183 383h124q34 0 60.5 4.5
t44.5 16.5t27 32.5t9 53.5t-8.5 53.5t-26 32.5t-44 16.5t-62.5 4.5h-124v-214z" />
    <glyph glyph-name="uni0413" unicode="&#x413;" horiz-adv-x="554" 
d="M524 680v-83h-341v-597h-92v680h433z" />
    <glyph glyph-name="uni0414" unicode="&#x414;" horiz-adv-x="689" 
d="M25 -141l-13 224h49q21 26 37 53t28 61.5t20 81t12 112.5l18 289h404v-597h61l-13 -224h-72l-8 141h-443l-8 -141h-72zM488 83v514h-227l-15 -212q-5 -65 -11.5 -112.5t-16.5 -82.5t-23 -60.5t-31 -46.5h324z" />
    <glyph glyph-name="uni0415" unicode="&#x415;" horiz-adv-x="586" 
d="M524 680v-83h-341v-209h309v-83h-309v-222h344v-83h-436v680h433z" />
    <glyph glyph-name="uni0416" unicode="&#x416;" horiz-adv-x="928" 
d="M416 310l-285 -310h-115v10l301 323l-287 337v10h109l277 -334h2v334h92v-334h2l277 334h109v-10l-287 -337l301 -323v-10h-115l-285 310h-2v-310h-92v310h-2z" />
    <glyph glyph-name="uni0417" unicode="&#x417;" horiz-adv-x="546" 
d="M134 388h121q67 0 96.5 32.5t29.5 78.5t-31.5 78.5t-94.5 32.5q-47 0 -88.5 -9t-84.5 -26l-28 75q19 10 43.5 18.5t50.5 14.5t53.5 9t54.5 3q106 0 163 -51.5t57 -138.5q0 -28 -8.5 -52.5t-22 -44t-30.5 -34t-34 -21.5v-2q49 -19 80.5 -62.5t31.5 -106.5q0 -45 -18 -81
t-50.5 -62t-77.5 -40t-98 -14q-66 0 -120.5 14t-92.5 37l32 75q44 -22 87.5 -31.5t92.5 -9.5q31 0 58 7.5t47.5 22.5t32.5 37t12 51q0 24 -7 45.5t-24.5 37.5t-46 25t-71.5 9h-115v83z" />
    <glyph glyph-name="uni0418" unicode="&#x418;" horiz-adv-x="702" 
d="M185 135l322 545h104v-680h-92v545h-2l-321 -545h-105v680h92v-545h2z" />
    <glyph glyph-name="uni0419" unicode="&#x419;" horiz-adv-x="702" 
d="M360 838q34 0 65.5 6.5t54.5 25.5l30 -42q-24 -34 -62.5 -49.5t-87.5 -15.5q-48 0 -86.5 15.5t-62.5 49.5l30 42q23 -19 54.5 -25.5t64.5 -6.5zM185 135l322 545h104v-680h-92v545h-2l-321 -545h-105v680h92v-545h2z" />
    <glyph glyph-name="uni041A" unicode="&#x41a;" horiz-adv-x="601" 
d="M183 310v-310h-92v680h92v-334h2l279 334h107v-10l-287 -337l301 -323v-10h-113l-287 310h-2z" />
    <glyph glyph-name="uni041B" unicode="&#x41b;" horiz-adv-x="679" 
d="M496 597h-264l-10 -230q-4 -87 -11.5 -149t-19 -104t-28 -66.5t-38.5 -37.5t-50 -16.5t-62 -3.5v83q29 0 50 6.5t35 35t22.5 87.5t13.5 165l13 313h441v-680h-92v597z" />
    <glyph glyph-name="uni041C" unicode="&#x41c;" horiz-adv-x="827" 
d="M414 284l234 396h88v-680h-92v511h-2l-195 -340h-66l-196 340h-2v-511h-92v680h87l234 -396h2z" />
    <glyph glyph-name="uni041D" unicode="&#x41d;" horiz-adv-x="703" 
d="M520 305h-337v-305h-92v680h92v-292h337v292h92v-680h-92v305z" />
    <glyph glyph-name="uni041E" unicode="&#x41e;" horiz-adv-x="719" 
d="M153 340q0 -57 10 -106.5t34 -85.5t64 -57t99 -21q60 0 99.5 21t63 57t33.5 85.5t10 106.5t-10 106.5t-33.5 85.5t-63 57t-99.5 21q-59 0 -99 -21t-64 -57t-34 -85.5t-10 -106.5zM661 340q0 -75 -17 -140t-53 -113t-93 -75t-138 -27t-138 27t-93.5 75t-53.5 113t-17 140
t17 140t53.5 113t93.5 75t138 27t138 -27t93 -75t53 -113t17 -140z" />
    <glyph glyph-name="uni041F" unicode="&#x41f;" horiz-adv-x="703" 
d="M520 597h-337v-597h-92v680h521v-680h-92v597z" />
    <glyph glyph-name="uni0420" unicode="&#x420;" horiz-adv-x="593" 
d="M91 0v680h241q57 0 98.5 -14.5t68.5 -41.5t40 -65.5t13 -87.5t-13.5 -87.5t-40.5 -65.5t-68.5 -41.5t-97.5 -14.5h-149v-262h-92zM183 345h141q71 0 102 34.5t31 91.5t-31 91.5t-102 34.5h-141v-252z" />
    <glyph glyph-name="uni0421" unicode="&#x421;" horiz-adv-x="598" 
d="M57 340q0 79 20.5 144.5t60 112.5t98 72.5t135.5 25.5q44 0 90 -11.5t91 -32.5l-25 -73q-43 19 -80.5 25.5t-75.5 6.5q-57 0 -98.5 -19t-68.5 -54t-39.5 -85t-12.5 -112t12.5 -112t39.5 -85t68.5 -54t98.5 -19q38 0 75.5 6.5t80.5 25.5l25 -73q-45 -21 -91 -32.5
t-90 -11.5q-77 0 -135.5 25.5t-98 72.5t-60 112t-20.5 145z" />
    <glyph glyph-name="uni0422" unicode="&#x422;" horiz-adv-x="553" 
d="M521 680v-83h-198v-597h-92v597h-199v83h489z" />
    <glyph glyph-name="uni0423" unicode="&#x423;" horiz-adv-x="553" 
d="M542 670l-220 -519q-17 -40 -36 -68.5t-43 -47t-55 -27t-72 -8.5h-38v84h29q23 0 40.5 3t32 12t26.5 24.5t23 40.5l16 35l-224 471v10h96l173 -380h3l154 380h95v-10z" />
    <glyph glyph-name="uni0424" unicode="&#x424;" horiz-adv-x="819" 
d="M452 617q81 -5 139 -28t95 -59.5t54.5 -85t17.5 -103.5q0 -56 -17.5 -104t-54.5 -85t-95 -60t-139 -28v-64h-92v64q-82 5 -138.5 28t-92 60t-51 85t-15.5 104q0 55 15.5 103.5t51 85t92 59.5t138.5 28v63h92v-63zM158 341q0 -41 9.5 -75t33 -59.5t62 -42t97.5 -20.5v394
q-59 -5 -97.5 -21t-62 -41.5t-33 -59.5t-9.5 -75zM663 341q0 41 -11 75t-36 59.5t-65.5 41.5t-98.5 21v-394q58 4 98.5 20.5t65.5 42t36 59.5t11 75z" />
    <glyph glyph-name="uni0425" unicode="&#x425;" horiz-adv-x="588" 
d="M128 680l165 -277h2l166 277h99v-10l-208 -330l208 -330v-10h-99l-166 276h-2l-165 -276h-99v10l207 330l-207 330v10h99z" />
    <glyph glyph-name="uni0426" unicode="&#x426;" horiz-adv-x="711" 
d="M578 -141l-8 141h-479v680h92v-597h327v597h92v-597h61l-13 -224h-72z" />
    <glyph glyph-name="uni0427" unicode="&#x427;" horiz-adv-x="637" 
d="M156 680v-291q0 -62 31.5 -92.5t100.5 -30.5q22 0 46.5 3.5t47 8t41.5 9.5t31 8v385h92v-680h-92v210q-27 -8 -76 -17.5t-109 -9.5q-47 0 -84.5 11.5t-64.5 35t-41.5 58t-14.5 79.5v313h92z" />
    <glyph glyph-name="uni0428" unicode="&#x428;" horiz-adv-x="1013" 
d="M91 0v680h92v-597h277v597h93v-597h277v597h92v-680h-831z" />
    <glyph glyph-name="uni0429" unicode="&#x429;" horiz-adv-x="1031" 
d="M898 -141l-8 141h-799v680h92v-597h277v597h93v-597h277v597h92v-597h61l-13 -224h-72z" />
    <glyph glyph-name="uni042A" unicode="&#x42a;" horiz-adv-x="684" 
d="M28 680h232v-271h158q107 0 165 -53.5t58 -151.5q0 -96 -58 -150t-165 -54h-250v597h-140v83zM260 83h148q63 0 100.5 27.5t37.5 93.5t-37 94t-101 28h-148v-243z" />
    <glyph glyph-name="uni042B" unicode="&#x42b;" horiz-adv-x="841" 
d="M750 0h-92v680h92v-680zM183 680v-271h158q107 0 165 -53.5t58 -151.5q0 -96 -58 -150t-165 -54h-250v680h92zM183 83h148q63 0 100.5 27.5t37.5 93.5t-37 94t-101 28h-148v-243z" />
    <glyph glyph-name="uni042C" unicode="&#x42c;" horiz-adv-x="607" 
d="M183 680v-271h158q107 0 165 -53.5t58 -151.5q0 -96 -58 -150t-165 -54h-250v680h92zM183 83h148q63 0 100.5 27.5t37.5 93.5t-37 94t-101 28h-148v-243z" />
    <glyph glyph-name="uni042D" unicode="&#x42d;" horiz-adv-x="598" 
d="M541 340q0 -80 -20.5 -145t-60 -112t-98.5 -72.5t-135 -25.5q-44 0 -90 11.5t-91 32.5l25 73q43 -19 80.5 -25.5t75.5 -6.5q105 0 157.5 61.5t60.5 168.5h-299v83h299q-8 105 -61 166t-157 61q-38 0 -75.5 -6.5t-80.5 -25.5l-25 73q45 21 91 32.5t90 11.5q76 0 135 -25.5
t98.5 -72.5t60 -112.5t20.5 -144.5z" />
    <glyph glyph-name="uni042E" unicode="&#x42e;" horiz-adv-x="991" 
d="M425 340q0 -57 10 -106.5t34 -85.5t64 -57t99 -21q60 0 99.5 21t63 57t33.5 85.5t10 106.5t-10 106.5t-33.5 85.5t-63 57t-99.5 21q-59 0 -99 -21t-64 -57t-34 -85.5t-10 -106.5zM933 340q0 -75 -17 -140t-53 -113t-93 -75t-138 -27q-76 0 -131.5 24t-92 67t-55.5 101.5
t-22 127.5h-148v-305h-92v680h92v-292h148q5 66 24.5 122.5t56.5 97.5t91.5 64t128.5 23q81 0 138 -27t93 -75t53 -113t17 -140z" />
    <glyph glyph-name="uni042F" unicode="&#x42f;" horiz-adv-x="642" 
d="M459 0v282h-124l-207 -282h-98v16l204 271q-75 14 -119 63.5t-44 130.5q0 95 60 147t164 52h256v-680h-92zM459 365v232h-159q-65 0 -99.5 -30.5t-34.5 -85.5t34.5 -85.5t99.5 -30.5h159z" />
    <glyph glyph-name="uni0430" unicode="&#x430;" horiz-adv-x="520" 
d="M283 218q-43 0 -71.5 -5.5t-46 -15.5t-25 -24.5t-7.5 -32.5q0 -39 21.5 -57.5t61.5 -18.5q34 0 69 11t61 30v113h-63zM361 43q-33 -27 -74 -42.5t-89 -15.5q-33 0 -62 10t-50 28.5t-33 46.5t-12 64q0 44 17 73.5t47.5 47.5t72 25.5t91.5 7.5h77v25q0 52 -25 78.5
t-83 26.5q-35 0 -72.5 -12.5t-65.5 -29.5l-34 68q32 23 77 38t97 15q94 0 145 -47.5t51 -138.5v-218q0 -13 4.5 -19.5t23.5 -6.5h27v-71q-11 -3 -23 -5.5t-26 -2.5q-35 0 -53 15t-26 40h-2z" />
    <glyph glyph-name="uni0431" unicode="&#x431;" 
d="M153 376q25 28 72 48.5t98 20.5q49 0 89 -16.5t68.5 -46t44 -71.5t15.5 -93q0 -49 -16 -91.5t-46.5 -74t-75 -49.5t-102.5 -18q-117 0 -179 74t-62 208q0 66 3.5 129.5t22.5 117.5t59.5 95.5t115.5 64.5q28 9 63.5 14.5t71 9.5t66.5 7.5t51 7.5v-84q-20 -3 -48.5 -5.5
t-60.5 -6t-64 -9.5t-58 -15q-38 -14 -62.5 -34t-39.5 -46.5t-21 -60.5t-7 -74zM448 218q0 69 -40.5 108.5t-107.5 39.5q-69 0 -109 -39.5t-40 -108.5q0 -33 10.5 -61.5t30 -49t47 -32t61.5 -11.5q33 0 60.5 11.5t47 32t30 49t10.5 61.5z" />
    <glyph glyph-name="uni0432" unicode="&#x432;" horiz-adv-x="515" 
d="M165 74h111q48 0 72.5 16.5t24.5 51.5q0 36 -23.5 52t-72.5 16h-112v-136zM258 482q91 0 138 -30.5t47 -98.5q0 -39 -19.5 -65t-48.5 -37v-1q42 -13 66.5 -41t24.5 -73q0 -67 -44.5 -101.5t-137.5 -34.5h-208v482h182zM165 282h88q25 0 43 3t30 10t18 19t6 30t-5 30.5
t-16.5 20t-30 10.5t-44.5 3h-89v-126z" />
    <glyph glyph-name="uni0433" unicode="&#x433;" horiz-adv-x="444" 
d="M418 482v-74h-253v-408h-89v482h342z" />
    <glyph glyph-name="uni0434" unicode="&#x434;" horiz-adv-x="569" 
d="M33 -120l-14 196h43q15 17 27 37.5t20 46t13.5 57t7.5 70.5l12 195h331v-406h54l-14 -196h-64l-9 120h-335l-8 -120h-64zM384 76v332h-162l-9 -123q-3 -40 -7 -72t-10 -57.5t-14.5 -45t-20.5 -34.5h223z" />
    <glyph glyph-name="uni0435" unicode="&#x435;" horiz-adv-x="537" 
d="M140 212q0 -33 11 -60.5t31 -47.5t48 -31t63 -11q50 0 84 13t60 30l35 -68q-32 -21 -78 -36.5t-109 -15.5q-62 0 -106.5 21t-73.5 56t-42.5 82t-13.5 99q0 49 14 95t42.5 81t71 56.5t99.5 21.5t97.5 -17.5t67 -46t38.5 -66.5t12 -78q0 -19 -2 -41.5t-4 -35.5h-345z
M403 284q1 5 1 10.5v10.5q0 25 -8.5 46t-24.5 36.5t-40 24t-55 8.5q-30 0 -54.5 -10t-42 -28t-27.5 -43t-12 -55h263z" />
    <glyph glyph-name="uni0436" unicode="&#x436;" horiz-adv-x="761" 
d="M334 217l-207 -217h-107v7l221 230l-211 238v7h103l201 -234h1v234h90v-234h2l201 234h102v-7l-210 -238l221 -230v-7h-107l-207 217h-2v-217h-90v217h-1z" />
    <glyph glyph-name="uni0437" unicode="&#x437;" horiz-adv-x="467" 
d="M112 284h120q30 0 56 14.5t26 47.5t-21 52.5t-79 19.5q-19 0 -37.5 -2t-36.5 -5t-36 -8t-36 -11l-19 72q34 15 77.5 24t88.5 9q99 0 144.5 -39t45.5 -101q0 -41 -19 -68t-48 -38v-2q40 -14 61 -43.5t21 -75.5q0 -32 -14 -59t-40.5 -46t-65.5 -29.5t-89 -10.5
q-57 0 -101 10t-76 27l21 72q18 -8 36.5 -13.5t38 -9.5t40 -5.5t41.5 -1.5q57 0 87.5 18t30.5 60q0 35 -26 51.5t-65 16.5h-126v74z" />
    <glyph glyph-name="uni0438" unicode="&#x438;" horiz-adv-x="571" 
d="M167 127l227 355h101v-482h-89v355h-2l-227 -355h-101v482h89v-355h2z" />
    <glyph glyph-name="uni0439" unicode="&#x439;" horiz-adv-x="571" 
d="M167 127l227 355h101v-482h-89v355h-2l-227 -355h-101v482h89v-355h2zM291 654q34 0 65.5 6.5t54.5 25.5l30 -42q-24 -34 -62.5 -49.5t-87.5 -15.5q-48 0 -86.5 15.5t-62.5 49.5l30 42q23 -19 54.5 -25.5t64.5 -6.5z" />
    <glyph glyph-name="uni043A" unicode="&#x43a;" horiz-adv-x="501" 
d="M165 217v-217h-89v482h89v-234h2l201 234h102v-7l-210 -238l221 -230v-7h-107l-207 217h-2z" />
    <glyph glyph-name="uni043B" unicode="&#x43b;" horiz-adv-x="567" 
d="M402 408h-190l-9 -153q-5 -87 -17.5 -139t-34 -79t-53 -35.5t-74.5 -8.5v77q21 0 37.5 5t28 24t19 56.5t10.5 103.5l11 223h361v-482h-89v408z" />
    <glyph glyph-name="uni043C" unicode="&#x43c;" horiz-adv-x="671" 
d="M336 218l173 264h86v-482h-89v327h-2l-135 -206h-68l-134 206h-2v-327h-89v482h86l172 -264h2z" />
    <glyph glyph-name="uni043D" unicode="&#x43d;" horiz-adv-x="570" 
d="M405 206h-240v-206h-89v482h89v-200h240v200h89v-482h-89v206z" />
    <glyph glyph-name="uni043E" unicode="&#x43e;" horiz-adv-x="574" 
d="M141 241q0 -37 7.5 -69.5t24.5 -56.5t44.5 -37.5t67.5 -13.5q41 0 69 13.5t45.5 37.5t25.5 56.5t8 69.5t-8 69.5t-25.5 56.5t-45.5 37.5t-69 13.5q-40 0 -67.5 -13.5t-44.5 -37.5t-24.5 -56.5t-7.5 -69.5zM525 241q0 -53 -13.5 -99.5t-42.5 -81t-74.5 -55t-109.5 -20.5
q-63 0 -108 20.5t-73.5 55t-41.5 81t-13 99.5q0 52 13 99t41.5 81.5t73.5 55t108 20.5q64 0 109.5 -20.5t74.5 -55t42.5 -81.5t13.5 -99z" />
    <glyph glyph-name="uni043F" unicode="&#x43f;" horiz-adv-x="570" 
d="M405 408h-240v-408h-89v482h418v-482h-89v408z" />
    <glyph glyph-name="uni0440" unicode="&#x440;" horiz-adv-x="573" 
d="M166 111q23 -21 59 -34t72 -13q38 0 64 14t41.5 38t22 56.5t6.5 68.5t-6.5 68.5t-22 56.5t-41.5 38t-64 14q-36 0 -72 -13t-59 -34v-260zM139 482l11 -44h2q26 19 69.5 39t99.5 20q53 0 91.5 -20.5t63 -55t36 -81.5t11.5 -99q0 -53 -11.5 -99.5t-36 -81t-63 -55
t-91.5 -20.5q-56 0 -91.5 15t-61.5 34h-2v-232h-90v680h63z" />
    <glyph glyph-name="uni0441" unicode="&#x441;" horiz-adv-x="481" 
d="M49 241q0 57 16 104t46 80.5t74 52.5t101 19q38 0 79 -10.5t72 -24.5l-23 -70q-22 9 -57 17.5t-70 8.5q-38 0 -65.5 -15t-45.5 -40t-26.5 -57t-8.5 -65t8.5 -65t26.5 -57t45.5 -40t65.5 -15q35 0 70 8.5t57 17.5l23 -70q-31 -14 -72 -24.5t-79 -10.5q-57 0 -101 19
t-74 52.5t-46 80.5t-16 104z" />
    <glyph glyph-name="uni0442" unicode="&#x442;" horiz-adv-x="443" 
d="M417 482v-74h-151v-408h-89v408h-150v74h390z" />
    <glyph glyph-name="uni0443" unicode="&#x443;" horiz-adv-x="505" 
d="M482 472l-202 -536q-29 -77 -69.5 -113t-97.5 -36q-20 0 -41.5 3.5t-35.5 6.5v76q15 -2 33.5 -4.5t35.5 -2.5q32 0 52 18t34 57l23 64l-194 467v10h90l143 -375h3l137 375h89v-10z" />
    <glyph glyph-name="uni0444" unicode="&#x444;" horiz-adv-x="856" 
d="M473 99q23 -18 51.5 -26.5t64.5 -8.5t60 14t38.5 38t20 56.5t5.5 68.5t-5.5 68.5t-20 56.5t-38.5 38t-60 14t-64.5 -8.5t-51.5 -26.5v-284zM383 383q-23 18 -51.5 26.5t-64.5 8.5t-60 -14t-38.5 -38t-20 -56.5t-5.5 -68.5t5.5 -68.5t20 -56.5t38.5 -38t60 -14t64.5 8.5
t51.5 26.5v284zM475 458q26 17 58 28t80 11q51 0 87.5 -20.5t60 -55t34 -81.5t10.5 -99q0 -53 -10.5 -99.5t-34 -81t-60 -55t-87.5 -20.5q-28 0 -48 2.5t-36 8t-28.5 13t-25.5 16.5h-2v-223h-90v223h-2q-13 -9 -25.5 -16.5t-28.5 -13t-36 -8t-48 -2.5q-51 0 -87.5 20.5
t-60 55t-34 81t-10.5 99.5q0 52 10.5 99t34 81.5t60 55t87.5 20.5q48 0 80 -11t58 -28h2v242h90v-242h2z" />
    <glyph glyph-name="uni0445" unicode="&#x445;" horiz-adv-x="496" 
d="M247 187l-124 -187h-93v10l161 231l-161 231v10h93l124 -188h2l123 188h94v-10l-161 -231l161 -231v-10h-94l-123 187h-2z" />
    <glyph glyph-name="uni0446" unicode="&#x446;" horiz-adv-x="582" 
d="M462 -120l-8 120h-378v482h89v-408h232v408h89v-408h54l-14 -194h-64z" />
    <glyph glyph-name="uni0447" unicode="&#x447;" horiz-adv-x="513" 
d="M141 482v-203q0 -35 21.5 -54t69.5 -19q34 0 66.5 6.5t49.5 12.5v257h89v-482h-89v150q-23 -8 -58 -14t-80 -6q-37 0 -66 9.5t-49.5 27t-31.5 42.5t-11 56v217h89z" />
    <glyph glyph-name="uni0448" unicode="&#x448;" horiz-adv-x="807" 
d="M76 0v482h89v-408h194v408h89v-408h193v408h90v-482h-655z" />
    <glyph glyph-name="uni0449" unicode="&#x449;" horiz-adv-x="827" 
d="M706 -120l-8 120h-622v482h89v-408h194v408h89v-408h193v408h90v-408h54l-14 -194h-65z" />
    <glyph glyph-name="uni044A" unicode="&#x44a;" horiz-adv-x="552" 
d="M29 482h193v-181h115q87 0 132 -39t45 -112q0 -72 -45 -111t-132 -39h-204v408h-104v74zM222 74h107q22 0 39.5 5t29.5 15t18 24t6 32t-6 32.5t-17.5 24.5t-29 15t-40.5 5h-107v-153z" />
    <glyph glyph-name="uni044B" unicode="&#x44b;" horiz-adv-x="687" 
d="M165 482v-181h115q87 0 132.5 -39t45.5 -112q0 -72 -45.5 -111t-132.5 -39h-204v482h89zM165 76h108q22 0 39.5 5t29 14t17.5 23t6 32t-6 32t-17.5 23.5t-29 14.5t-39.5 5h-108v-149zM521 0v482h90v-482h-90z" />
    <glyph glyph-name="uni044C" unicode="&#x44c;" horiz-adv-x="496" 
d="M165 482v-181h115q87 0 132.5 -39t45.5 -112q0 -72 -45.5 -111t-132.5 -39h-204v482h89zM165 76h108q22 0 39.5 5t29 14t17.5 23t6 32t-6 32t-17.5 23.5t-29 14.5t-39.5 5h-108v-149z" />
    <glyph glyph-name="uni044D" unicode="&#x44d;" horiz-adv-x="484" 
d="M436 241q0 -56 -16.5 -102.5t-48 -79.5t-78 -51.5t-106.5 -18.5q-35 0 -72 8t-72 24l24 70q33 -13 61.5 -18.5t58.5 -5.5q71 0 108.5 37t45.5 100h-218v74h218q-8 63 -46 100t-108 37q-30 0 -58.5 -5.5t-61.5 -18.5l-24 71q35 15 72 23t72 8q60 0 106.5 -18.5t78 -51.5
t48 -79.5t16.5 -102.5z" />
    <glyph glyph-name="uni044E" unicode="&#x44e;" horiz-adv-x="801" 
d="M752 241q0 -53 -13.5 -99.5t-42.5 -81t-74.5 -55t-109.5 -20.5q-58 0 -100.5 17t-71 47t-44 70t-19.5 87h-112v-206h-89v482h89v-200h113q4 45 20 84.5t44.5 68.5t70.5 45.5t99 16.5q64 0 109.5 -20.5t74.5 -55t42.5 -81.5t13.5 -99zM368 241q0 -37 7.5 -69.5t24.5 -56.5
t44.5 -37.5t67.5 -13.5q41 0 69 13.5t45.5 37.5t25.5 56.5t8 69.5t-8 69.5t-25.5 56.5t-45.5 37.5t-69 13.5q-40 0 -67.5 -13.5t-44.5 -37.5t-24.5 -56.5t-7.5 -69.5z" />
    <glyph glyph-name="uni044F" unicode="&#x44f;" horiz-adv-x="537" 
d="M371 0v181h-86l-158 -181h-95v11l156 176q-60 11 -92.5 50t-32.5 95q0 34 12 62t35 47.5t57.5 30t78.5 10.5h215v-482h-90zM371 406h-120q-45 0 -70 -21t-25 -53t25 -53.5t70 -21.5h120v149z" />
    <glyph glyph-name="uni0450" unicode="&#x450;" horiz-adv-x="537" 
d="M140 212q0 -33 11 -60.5t31 -47.5t48 -31t63 -11q50 0 84 13t60 30l35 -68q-32 -21 -78 -36.5t-109 -15.5q-62 0 -106.5 21t-73.5 56t-42.5 82t-13.5 99q0 49 14 95t42.5 81t71 56.5t99.5 21.5t97.5 -17.5t67 -46t38.5 -66.5t12 -78q0 -19 -2 -41.5t-4 -35.5h-345z
M403 284q1 5 1 10.5v10.5q0 25 -8.5 46t-24.5 36.5t-40 24t-55 8.5q-30 0 -54.5 -10t-42 -28t-27.5 -43t-12 -55h263zM170 710h98l64 -121v-10h-77l-85 121v10z" />
    <glyph glyph-name="uni0451" unicode="&#x451;" horiz-adv-x="537" 
d="M140 212q0 -33 11 -60.5t31 -47.5t48 -31t63 -11q50 0 84 13t60 30l35 -68q-32 -21 -78 -36.5t-109 -15.5q-62 0 -106.5 21t-73.5 56t-42.5 82t-13.5 99q0 49 14 95t42.5 81t71 56.5t99.5 21.5t97.5 -17.5t67 -46t38.5 -66.5t12 -78q0 -19 -2 -41.5t-4 -35.5h-345z
M403 284q1 5 1 10.5v10.5q0 25 -8.5 46t-24.5 36.5t-40 24t-55 8.5q-30 0 -54.5 -10t-42 -28t-27.5 -43t-12 -55h263zM126 634q0 26 15.5 41t41.5 15q27 0 42.5 -15t15.5 -41t-15.5 -41.5t-42.5 -15.5q-26 0 -41.5 15.5t-15.5 41.5zM325 634q0 26 15.5 41t41.5 15
q27 0 42.5 -15t15.5 -41t-15.5 -41.5t-42.5 -15.5q-26 0 -41.5 15.5t-15.5 41.5z" />
    <glyph glyph-name="uni0452" unicode="&#x452;" horiz-adv-x="558" 
d="M76 0v557h-62v74h62v69h90v-69h113v-74h-113v-109h2q11 7 27 16t36 16t43 12t49 5q40 0 73 -12.5t56.5 -40t36 -71.5t12.5 -107q0 -62 -9.5 -120.5t-25 -112.5t-35.5 -103t-41 -92l-74 35q41 85 67 184.5t26 208.5q0 83 -26.5 117.5t-81.5 34.5q-19 0 -38.5 -4.5
t-38 -11.5t-33.5 -15.5t-25 -15.5v-371h-90z" />
    <glyph glyph-name="uni0453" unicode="&#x453;" horiz-adv-x="444" 
d="M418 482v-74h-253v-408h-89v482h342zM374 700l-85 -121h-77v10l64 121h98v-10z" />
    <glyph glyph-name="uni0454" unicode="&#x454;" horiz-adv-x="483" 
d="M49 241q0 56 16.5 102.5t48 79.5t78 51.5t106.5 18.5q35 0 72 -8t72 -23l-24 -71q-33 13 -61.5 18.5t-58.5 5.5q-70 0 -108 -37t-46 -100h218v-74h-218q8 -63 45.5 -100t108.5 -37q30 0 58.5 5.5t61.5 18.5l24 -70q-35 -16 -72 -24t-72 -8q-60 0 -106.5 18.5t-78 51.5
t-48 79.5t-16.5 102.5z" />
    <glyph glyph-name="uni0455" unicode="&#x455;" horiz-adv-x="450" 
d="M75 103q31 -19 66 -30t76 -11q50 0 74.5 17.5t24.5 50.5q0 26 -17 41t-55 26l-58 16q-31 9 -56 20.5t-42 28t-26.5 38.5t-9.5 50q0 66 47.5 106.5t131.5 40.5q50 0 89 -9t76 -25l-28 -73q-32 15 -66 22.5t-66 7.5q-49 0 -71.5 -17.5t-22.5 -49.5q0 -24 15 -38t56 -25
l57 -15q31 -8 56 -20.5t43 -29.5t27.5 -40t9.5 -53q0 -33 -12.5 -60.5t-35.5 -46.5t-57 -29.5t-76 -10.5q-62 0 -103.5 12.5t-78.5 33.5l32 72v0z" />
    <glyph glyph-name="uni0456" unicode="&#x456;" horiz-adv-x="242" 
d="M76 0v482h90v-482h-90zM64 634q0 26 15.5 41t41.5 15q27 0 42.5 -15t15.5 -41t-15.5 -41.5t-42.5 -15.5q-26 0 -41.5 15.5t-15.5 41.5z" />
    <glyph glyph-name="uni0457" unicode="&#x457;" horiz-adv-x="242" 
d="M76 0v482h90v-482h-90zM-35 634q0 26 15.5 41t41.5 15q27 0 42.5 -15t15.5 -41t-15.5 -41.5t-42.5 -15.5q-26 0 -41.5 15.5t-15.5 41.5zM164 634q0 26 15.5 41t41.5 15q27 0 42.5 -15t15.5 -41t-15.5 -41.5t-42.5 -15.5q-26 0 -41.5 15.5t-15.5 41.5z" />
    <glyph glyph-name="uni0458" unicode="&#x458;" horiz-adv-x="242" 
d="M166 482v-540q0 -74 -35.5 -114.5t-107.5 -40.5q-14 0 -34 2t-35 5v77q13 -2 30.5 -3.5t29.5 -1.5q32 0 47 16.5t15 56.5v543h90zM64 634q0 26 15.5 41t41.5 15q27 0 42.5 -15t15.5 -41t-15.5 -41.5t-42.5 -15.5q-26 0 -41.5 15.5t-15.5 41.5z" />
    <glyph glyph-name="uni0459" unicode="&#x459;" horiz-adv-x="786" 
d="M456 482v-181h115q87 0 132 -39t45 -112q0 -72 -45 -111t-132 -39h-205v408h-154l-9 -153q-5 -87 -17.5 -139t-34 -79t-53 -35.5t-74.5 -8.5v77q21 0 37.5 5t28 24t19 56.5t10.5 103.5l11 223h326zM456 74h107q22 0 39.5 5t29 15t17.5 24t6 32t-6 32.5t-17.5 24.5
t-28.5 15t-40 5h-107v-153z" />
    <glyph glyph-name="uni045A" unicode="&#x45a;" horiz-adv-x="798" 
d="M468 482v-181h115q87 0 132 -39t45 -112q0 -72 -45 -111t-132 -39h-204v228h-214v-228h-89v482h89v-181h214v181h89zM468 74h107q22 0 39.5 5t29 15t17.5 24t6 32t-6 32.5t-17.5 24.5t-28.5 15.5t-40 5.5h-107v-154z" />
    <glyph glyph-name="uni045B" unicode="&#x45b;" horiz-adv-x="570" 
d="M166 557v-109h2q11 7 27 16t36 16t43 12t49 5q81 0 128.5 -46.5t47.5 -137.5v-313h-90v295q0 62 -26.5 92.5t-81.5 30.5q-19 0 -38.5 -4.5t-38 -11.5t-33.5 -15.5t-25 -15.5v-371h-90v557h-62v74h62v69h90v-69h113v-74h-113z" />
    <glyph glyph-name="uni045C" unicode="&#x45c;" horiz-adv-x="501" 
d="M165 217v-217h-89v482h89v-234h2l201 234h102v-7l-210 -238l221 -230v-7h-107l-207 217h-2zM403 700l-85 -121h-77v10l64 121h98v-10z" />
    <glyph glyph-name="uni045D" unicode="&#x45d;" horiz-adv-x="571" 
d="M167 127l227 355h101v-482h-89v355h-2l-227 -355h-101v482h89v-355h2zM172 710h98l64 -121v-10h-77l-85 121v10z" />
    <glyph glyph-name="uni045E" unicode="&#x45e;" horiz-adv-x="505" 
d="M482 472l-202 -536q-29 -77 -69.5 -113t-97.5 -36q-20 0 -41.5 3.5t-35.5 6.5v76q15 -2 33.5 -4.5t35.5 -2.5q32 0 52 18t34 57l23 64l-194 467v10h90l143 -375h3l137 375h89v-10zM260 654q34 0 65.5 6.5t54.5 25.5l30 -42q-24 -34 -62.5 -49.5t-87.5 -15.5
q-48 0 -86.5 15.5t-62.5 49.5l30 42q23 -19 54.5 -25.5t64.5 -6.5z" />
    <glyph glyph-name="uni045F" unicode="&#x45f;" horiz-adv-x="562" 
d="M249 -120l-9 120h-164v482h89v-408h232v408h89v-482h-164l-9 -120h-64z" />
    <glyph glyph-name="uni0462" unicode="&#x462;" horiz-adv-x="700" 
d="M279 680v-70h212v-83h-212v-118h158q107 0 165 -53.5t58 -151.5q0 -96 -58 -150t-165 -54h-250v527h-149v83h149v70h92zM279 83h148q63 0 100.5 27.5t37.5 93.5t-37 94t-101 28h-148v-243z" />
    <glyph glyph-name="uni0463" unicode="&#x463;" horiz-adv-x="549" 
d="M222 701v-219h164v-74h-164v-107h115q87 0 132.5 -39t45.5 -112q0 -72 -45.5 -111t-132.5 -39h-204v408h-104v74h104v219h89zM222 74h108q22 0 39.5 5t29 15t17.5 24t6 32t-6 32.5t-17.5 24.5t-29 15t-39.5 5h-108v-153z" />
    <glyph glyph-name="uni0472" unicode="&#x472;" horiz-adv-x="719" 
d="M661 340q0 -75 -17 -140t-53 -113t-93 -75t-138 -27t-138 27t-93.5 75t-53.5 113t-17 140t17 140t53.5 113t93.5 75t138 27t138 -27t93 -75t53 -113t17 -140zM360 70q54 0 92 17.5t62 48.5t36 73.5t15 92.5h-411q3 -50 15 -92.5t36.5 -73.5t62.5 -48.5t92 -17.5zM360 610
q-53 0 -90.5 -17t-62 -47t-37 -71.5t-16.5 -89.5h410q-3 48 -15.5 89.5t-36.5 71.5t-61 47t-91 17z" />
    <glyph glyph-name="uni0473" unicode="&#x473;" horiz-adv-x="574" 
d="M525 241q0 -53 -13.5 -99.5t-42.5 -81t-74.5 -55t-109.5 -20.5q-63 0 -108 20.5t-73.5 55t-41.5 81t-13 99.5q0 52 13 99t41.5 81.5t73.5 55t108 20.5q64 0 109.5 -20.5t74.5 -55t42.5 -81.5t13.5 -99zM285 64q71 0 105 39.5t41 100.5h-288q3 -30 12.5 -56t27 -44.5
t42.5 -29t60 -10.5zM285 418q-34 0 -59 -10t-42.5 -28t-27 -43t-13.5 -54h287q-8 59 -41.5 97t-103.5 38z" />
    <glyph glyph-name="uni0474" unicode="&#x474;" horiz-adv-x="667" 
d="M646 610q-31 0 -49.5 -11t-32.5 -49l-203 -550h-93l-253 670v10h96l203 -569h2l167 462q13 35 28 58.5t34.5 37.5t44 20t56.5 6v-85z" />
    <glyph glyph-name="uni0475" unicode="&#x475;" horiz-adv-x="545" 
d="M517 415q-23 0 -36.5 -9.5t-23.5 -33.5l-145 -372h-101l-190 475v7h96l144 -385h2l115 302q10 25 22 43t28 29t38 16.5t51 5.5v-78z" />
    <glyph glyph-name="uni0490" unicode="&#x490;" horiz-adv-x="552" 
d="M512 821l12 -224h-341v-597h-92v680h338l12 141h71z" />
    <glyph glyph-name="uni0491" unicode="&#x491;" horiz-adv-x="442" 
d="M408 587l10 -179h-253v-408h-89v482h250l10 105h72z" />
    <glyph glyph-name="uni0E3F" unicode="&#xe3f;" 
d="M324 679q89 -7 134 -50t45 -124q0 -59 -23.5 -98.5t-56.5 -53.5v-2q50 -17 78 -58.5t28 -108.5q0 -88 -52 -136t-153 -48v-108h-68v108h-169v680h169v90h68v-91zM433 191q0 60 -28 83.5t-81 25.5v-217q53 1 81 24.5t28 83.5zM179 83h77v217h-77v-217zM179 383h77v214h-77
v-214zM409 490q0 55 -20.5 77.5t-64.5 27.5v-211q42 5 63.5 28t21.5 78z" />
    <glyph glyph-name="Wgrave" unicode="&#x1e80;" horiz-adv-x="977" 
d="M951 670l-196 -670h-94l-172 568h-2l-171 -568h-94l-197 670v10h96l149 -552h2l167 552h98l167 -552h2l149 552h96v-10zM381 883h98l54 -121v-10h-77l-75 121v10z" />
    <glyph glyph-name="wgrave" unicode="&#x1e81;" horiz-adv-x="818" 
d="M792 472l-164 -472h-87l-131 374h-2l-131 -374h-87l-164 472v10h91l119 -365h2l125 365h92l126 -365h2l118 365h91v-10zM287 710h98l64 -121v-10h-77l-85 121v10z" />
    <glyph glyph-name="Wacute" unicode="&#x1e82;" horiz-adv-x="977" 
d="M951 670l-196 -670h-94l-172 568h-2l-171 -568h-94l-197 670v10h96l149 -552h2l167 552h98l167 -552h2l149 552h96v-10zM602 873l-75 -121h-77v10l54 121h98v-10z" />
    <glyph glyph-name="wacute" unicode="&#x1e83;" horiz-adv-x="818" 
d="M792 472l-164 -472h-87l-131 374h-2l-131 -374h-87l-164 472v10h91l119 -365h2l125 365h92l126 -365h2l118 365h91v-10zM527 700l-85 -121h-77v10l64 121h98v-10z" />
    <glyph glyph-name="Wdieresis" unicode="&#x1e84;" horiz-adv-x="977" 
d="M951 670l-196 -670h-94l-172 568h-2l-171 -568h-94l-197 670v10h96l149 -552h2l167 552h98l167 -552h2l149 552h96v-10zM321 816q0 26 15.5 41t41.5 15q27 0 42.5 -15t15.5 -41t-15.5 -41.5t-42.5 -15.5q-26 0 -41.5 15.5t-15.5 41.5zM540 816q0 26 15.5 41t41.5 15
q27 0 42.5 -15t15.5 -41t-15.5 -41.5t-42.5 -15.5q-26 0 -41.5 15.5t-15.5 41.5z" />
    <glyph glyph-name="wdieresis" unicode="&#x1e85;" horiz-adv-x="818" 
d="M792 472l-164 -472h-87l-131 374h-2l-131 -374h-87l-164 472v10h91l119 -365h2l125 365h92l126 -365h2l118 365h91v-10zM252 634q0 26 15.5 41t41.5 15q27 0 42.5 -15t15.5 -41t-15.5 -41.5t-42.5 -15.5q-26 0 -41.5 15.5t-15.5 41.5zM451 634q0 26 15.5 41t41.5 15
q27 0 42.5 -15t15.5 -41t-15.5 -41.5t-42.5 -15.5q-26 0 -41.5 15.5t-15.5 41.5z" />
    <glyph glyph-name="uni1E9E" unicode="&#x1e9e;" horiz-adv-x="664" 
d="M84 407q0 65 14.5 118t45 91t78 58.5t114.5 20.5q64 0 118 -20t100 -51v-60l-126 -179v-2q43 0 79 -13t62 -38t40 -60t14 -80q0 -48 -17 -86.5t-47 -65t-70 -41t-86 -14.5q-38 0 -64.5 2.5t-52.5 7.5v83q25 -4 51 -7t58 -3t57 10t42 26.5t26 39t9 48.5q0 62 -36.5 89.5
t-112.5 27.5h-57v56l141 209q-26 18 -62 28t-66 10q-86 0 -123 -52.5t-37 -152.5v-407h-92v407z" />
    <glyph glyph-name="Ygrave" unicode="&#x1ef2;" horiz-adv-x="560" 
d="M108 680l171 -306h2l174 306h98v-10l-227 -383v-287h-92v287l-225 383v10h99zM174 883h98l54 -121v-10h-77l-75 121v10z" />
    <glyph glyph-name="ygrave" unicode="&#x1ef3;" horiz-adv-x="505" 
d="M482 472l-202 -536q-29 -77 -69.5 -113t-97.5 -36q-20 0 -41.5 3.5t-35.5 6.5v76q15 -2 33.5 -4.5t35.5 -2.5q32 0 52 18t34 57l23 64l-194 467v10h90l143 -375h3l137 375h89v-10zM133 710h98l64 -121v-10h-77l-85 121v10z" />
    <glyph glyph-name="endash" unicode="&#x2013;" horiz-adv-x="567" 
d="M72 233v74h423v-74h-423z" />
    <glyph glyph-name="emdash" unicode="&#x2014;" horiz-adv-x="900" 
d="M72 233v74h756v-74h-756z" />
    <glyph glyph-name="quoteleft" unicode="&#x2018;" horiz-adv-x="254" 
d="M199 670l-41 -253h-103v10l73 253h71v-10z" />
    <glyph glyph-name="quoteright" unicode="&#x2019;" horiz-adv-x="249" 
d="M61 427l41 253h103v-10l-73 -253h-71v10z" />
    <glyph glyph-name="quotesinglbase" unicode="&#x201a;" horiz-adv-x="255" 
d="M41 -151l41 253h103v-10l-73 -253h-71v10z" />
    <glyph glyph-name="quotedblleft" unicode="&#x201c;" horiz-adv-x="431" 
d="M376 670l-41 -253h-103v10l73 253h71v-10zM199 670l-41 -253h-103v10l73 253h71v-10z" />
    <glyph glyph-name="quotedblright" unicode="&#x201d;" horiz-adv-x="426" 
d="M61 427l41 253h103v-10l-73 -253h-71v10zM238 427l41 253h103v-10l-73 -253h-71v10z" />
    <glyph glyph-name="quotedblbase" unicode="&#x201e;" horiz-adv-x="432" 
d="M41 -151l41 253h103v-10l-73 -253h-71v10zM218 -151l41 253h103v-10l-73 -253h-71v10z" />
    <glyph glyph-name="dagger" unicode="&#x2020;" horiz-adv-x="469" 
d="M199 482v218h72v-218h168v-68h-168v-612h-72v612h-169v68h169z" />
    <glyph glyph-name="daggerdbl" unicode="&#x2021;" horiz-adv-x="514" 
d="M222 482v218h72v-218h167v-68h-167v-326h167v-68h-167v-218h-72v218h-169v68h169v326h-169v68h169z" />
    <glyph glyph-name="bullet" unicode="&#x2022;" horiz-adv-x="350" 
d="M90 291q0 38 23 62t62 24t62 -24t23 -62t-23 -62t-62 -24t-62 24t-23 62z" />
    <glyph glyph-name="ellipsis" unicode="&#x2026;" horiz-adv-x="702" 
d="M63 50q0 29 17.5 47t46.5 18t46.5 -18t17.5 -47t-17.5 -47t-46.5 -18t-46.5 18t-17.5 47zM287 50q0 29 17.5 47t46.5 18t46.5 -18t17.5 -47t-17.5 -47t-46.5 -18t-46.5 18t-17.5 47zM511 50q0 29 17.5 47t46.5 18t46.5 -18t17.5 -47t-17.5 -47t-46.5 -18t-46.5 18
t-17.5 47z" />
    <glyph glyph-name="perthousand" unicode="&#x2030;" horiz-adv-x="1114" 
d="M865 169q0 -59 17.5 -87.5t51.5 -28.5t51.5 28.5t17.5 87.5q0 58 -17.5 87t-51.5 29q-33 0 -51 -29t-18 -87zM1076 169q0 -38 -9 -70.5t-27 -56t-44.5 -37t-61.5 -13.5t-61.5 13.5t-44.5 37t-27 56t-9 70.5t9 70.5t27 56t44.5 37t61.5 13.5t61.5 -13.5t44.5 -37t27 -56
t9 -70.5zM116 509q0 -59 17.5 -87.5t51.5 -28.5t51.5 28.5t17.5 87.5q0 58 -17.5 87t-51.5 29q-33 0 -51 -29t-18 -87zM327 509q0 -38 -9 -70.5t-27 -56t-44.5 -37t-61.5 -13.5t-61.5 13.5t-44.5 37t-27 56t-9 70.5t9 70.5t27 56t44.5 37t61.5 13.5t61.5 -13.5t44.5 -37
t27 -56t9 -70.5zM523 169q0 -59 17.5 -87.5t51.5 -28.5t51.5 28.5t17.5 87.5q0 58 -17.5 87t-51.5 29q-33 0 -51 -29t-18 -87zM734 169q0 -38 -9 -70.5t-27 -56t-44.5 -37t-61.5 -13.5t-61.5 13.5t-44.5 37t-27 56t-9 70.5t9 70.5t27 56t44.5 37t61.5 13.5t61.5 -13.5
t44.5 -37t27 -56t9 -70.5zM129 0v10l447 670h76v-10l-447 -670h-76z" />
    <glyph glyph-name="guilsinglleft" unicode="&#x2039;" horiz-adv-x="308" 
d="M43 276l155 209l58 -38l-122 -177l122 -177l-58 -38l-155 209v12z" />
    <glyph glyph-name="guilsinglright" unicode="&#x203a;" horiz-adv-x="308" 
d="M265 264l-155 -209l-58 38l122 177l-122 177l58 38l155 -209v-12z" />
    <glyph glyph-name="fraction" unicode="&#x2044;" horiz-adv-x="120" 
d="M-202 0v10l447 670h76v-10l-447 -670h-76z" />
    <glyph glyph-name="zerosuperior" unicode="&#x2070;" horiz-adv-x="350" 
d="M106 631q0 -59 17.5 -87.5t51.5 -28.5t51.5 28.5t17.5 87.5q0 58 -17.5 87t-51.5 29q-33 0 -51 -29t-18 -87zM317 631q0 -38 -9 -70.5t-27 -56t-44.5 -37t-61.5 -13.5t-61.5 13.5t-44.5 37t-27 56t-9 70.5t9 70.5t27 56t44.5 37t61.5 13.5t61.5 -13.5t44.5 -37t27 -56
t9 -70.5z" />
    <glyph glyph-name="foursuperior" unicode="&#x2074;" horiz-adv-x="334" 
d="M194 707h71v-114h41v-59h-41v-72h-71v72h-172v50l90 216h70l-84 -206v-1h96v114z" />
    <glyph glyph-name="fivesuperior" unicode="&#x2075;" horiz-adv-x="305" 
d="M48 623l20 177h192v-59h-133l-8 -64h24q57 0 93.5 -25.5t36.5 -82.5q0 -54 -38 -84.5t-107 -30.5q-18 0 -48 4.5t-56 14.5l16 60q23 -10 48 -14t42 -4q69 0 69 54q0 47 -65 47q-23 0 -42.5 -0.5t-33.5 -1.5z" />
    <glyph glyph-name="sixsuperior" unicode="&#x2076;" horiz-adv-x="323" 
d="M231 795l-85 -114v-1q7 2 19 4.5t24 2.5q24 0 44.5 -9t35 -24.5t23 -36.5t8.5 -45q0 -23 -8.5 -44.5t-25.5 -38t-42 -26t-58 -9.5q-34 0 -59.5 9.5t-42.5 25.5t-25.5 37.5t-8.5 45.5q0 20 6 39t19 39l98 150h78v-5zM227 570q0 27 -16.5 40.5t-44.5 13.5
q-29 0 -45.5 -13.5t-16.5 -40.5q0 -28 16.5 -41.5t45.5 -13.5q28 0 44.5 13.5t16.5 41.5z" />
    <glyph glyph-name="sevensuperior" unicode="&#x2077;" horiz-adv-x="285" 
d="M58 467l131 273v1h-166v59h243v-51l-135 -287h-73v5z" />
    <glyph glyph-name="eightsuperior" unicode="&#x2078;" horiz-adv-x="335" 
d="M168 515q35 0 48.5 12.5t13.5 32.5q0 21 -13.5 34t-48.5 13t-48.5 -13t-13.5 -34q0 -20 13.5 -32.5t48.5 -12.5zM168 808q63 0 92 -26t29 -68q0 -31 -16 -48t-35 -25v-1q28 -11 46 -33t18 -54q0 -45 -33.5 -72t-100.5 -27t-101 27t-34 72q0 32 18.5 54t44.5 33v1
q-18 8 -33.5 25t-15.5 48q0 42 29 68t92 26zM168 667q25 0 37.5 9.5t12.5 29.5q0 19 -12.5 30t-37.5 11q-26 0 -38 -11t-12 -30q0 -20 12 -29.5t38 -9.5z" />
    <glyph glyph-name="ninesuperior" unicode="&#x2079;" horiz-adv-x="323" 
d="M93 467l83 114v1q-7 -2 -18.5 -4.5t-23.5 -2.5q-24 0 -44 9t-35 24.5t-23.5 36.5t-8.5 46q0 23 8.5 44t25.5 37.5t42 26t58 9.5q34 0 59.5 -9.5t42.5 -25.5t25.5 -37t8.5 -45q0 -20 -6 -39.5t-19 -39.5l-98 -150h-77v5zM97 693q0 -27 16 -41t44 -14q29 0 45 14t16 41
t-16 40.5t-45 13.5q-28 0 -44 -13.5t-16 -40.5z" />
    <glyph glyph-name="plussuperior" unicode="&#x207a;" horiz-adv-x="264" 
d="M161 668h70v-59h-70v-70h-59v70h-69v59h69v69h59v-69z" />
    <glyph glyph-name="minussuperior" unicode="&#x207b;" horiz-adv-x="288" 
d="M45 609v59h198v-59h-198z" />
    <glyph glyph-name="parenleftsuperior" unicode="&#x207d;" horiz-adv-x="176" 
d="M29 631q0 36 7 69t18 62.5t24.5 55t27.5 47.5l45 -22q-25 -49 -39.5 -102t-14.5 -110q0 -58 14.5 -111t39.5 -102l-45 -22q-14 22 -27.5 47.5t-24.5 55t-18 63t-7 69.5z" />
    <glyph glyph-name="parenrightsuperior" unicode="&#x207e;" horiz-adv-x="176" 
d="M147 631q0 -36 -7 -69.5t-18 -63t-24.5 -55t-27.5 -47.5l-45 22q25 49 39.5 102t14.5 111q0 57 -14.5 110t-39.5 102l45 22q14 -22 27.5 -47.5t24.5 -55t18 -62.5t7 -69v0z" />
    <glyph glyph-name="zeroinferior" unicode="&#x2080;" horiz-adv-x="350" 
d="M106 50q0 -59 17.5 -87.5t51.5 -28.5t51.5 28.5t17.5 87.5q0 58 -17.5 87t-51.5 29q-33 0 -51 -29t-18 -87zM317 50q0 -38 -9 -70.5t-27 -56t-44.5 -37t-61.5 -13.5t-61.5 13.5t-44.5 37t-27 56t-9 70.5t9 70.5t27 56t44.5 37t61.5 13.5t61.5 -13.5t44.5 -37t27 -56
t9 -70.5z" />
    <glyph glyph-name="oneinferior" unicode="&#x2081;" horiz-adv-x="248" 
d="M22 100v63l122 56h52v-338h-71v261h-1l-93 -42h-9z" />
    <glyph glyph-name="twoinferior" unicode="&#x2082;" horiz-adv-x="313" 
d="M133 -59h145v-60h-246v51l134 117q17 14 26 29.5t9 34.5q0 29 -17 41t-39 12q-24 0 -42 -11.5t-34 -25.5l-38 48q8 7 19 16t25.5 16.5t33.5 12.5t42 5q25 0 47.5 -7.5t39.5 -21t26.5 -34t9.5 -45.5q0 -37 -17 -62t-39 -43l-85 -72v-1z" />
    <glyph glyph-name="threeinferior" unicode="&#x2083;" horiz-adv-x="313" 
d="M79 81h60q32 0 44.5 12t12.5 30q0 21 -13.5 32t-42.5 11q-20 0 -43.5 -4.5t-42.5 -12.5l-20 55q22 11 50.5 17t58.5 6q60 0 94 -25.5t34 -68.5q0 -32 -17.5 -51t-36.5 -24v-1q27 -9 44 -30t17 -55q0 -45 -35 -72t-105 -27q-37 0 -64 7.5t-49 18.5l19 57q20 -10 43.5 -16
t49.5 -6q30 0 49.5 10.5t19.5 36.5q0 22 -16.5 31t-50.5 9h-60v60z" />
    <glyph glyph-name="fourinferior" unicode="&#x2084;" horiz-adv-x="334" 
d="M194 126h71v-114h41v-59h-41v-72h-71v72h-172v50l90 216h70l-84 -206v-1h96v114z" />
    <glyph glyph-name="fiveinferior" unicode="&#x2085;" horiz-adv-x="305" 
d="M48 42l20 177h192v-59h-133l-8 -64h24q57 0 93.5 -25.5t36.5 -82.5q0 -54 -38 -84.5t-107 -30.5q-18 0 -48 4.5t-56 14.5l16 60q23 -10 48 -14t42 -4q69 0 69 54q0 47 -65 47q-23 0 -42.5 -0.5t-33.5 -1.5z" />
    <glyph glyph-name="sixinferior" unicode="&#x2086;" horiz-adv-x="323" 
d="M231 214l-85 -114v-1q7 2 19 4.5t24 2.5q24 0 44.5 -9t35 -24.5t23 -36.5t8.5 -45q0 -23 -8.5 -44.5t-25.5 -38t-42 -26t-58 -9.5q-34 0 -59.5 9.5t-42.5 25.5t-25.5 37.5t-8.5 45.5q0 20 6 39t19 39l98 150h78v-5zM227 -11q0 27 -16.5 40.5t-44.5 13.5
q-29 0 -45.5 -13.5t-16.5 -40.5q0 -28 16.5 -41.5t45.5 -13.5q28 0 44.5 13.5t16.5 41.5z" />
    <glyph glyph-name="seveninferior" unicode="&#x2087;" horiz-adv-x="285" 
d="M58 -114l131 273v1h-166v59h243v-51l-135 -287h-73v5z" />
    <glyph glyph-name="eightinferior" unicode="&#x2088;" horiz-adv-x="335" 
d="M168 -66q35 0 48.5 12.5t13.5 32.5q0 21 -13.5 34t-48.5 13t-48.5 -13t-13.5 -34q0 -20 13.5 -32.5t48.5 -12.5zM168 227q63 0 92 -26t29 -68q0 -31 -16 -48t-35 -25v-1q28 -11 46 -33t18 -54q0 -45 -33.5 -72t-100.5 -27t-101 27t-34 72q0 32 18.5 54t44.5 33v1
q-18 8 -33.5 25t-15.5 48q0 42 29 68t92 26zM168 86q25 0 37.5 9.5t12.5 29.5q0 19 -12.5 30t-37.5 11q-26 0 -38 -11t-12 -30q0 -20 12 -29.5t38 -9.5z" />
    <glyph glyph-name="nineinferior" unicode="&#x2089;" horiz-adv-x="323" 
d="M93 -114l83 114v1q-7 -2 -18.5 -4.5t-23.5 -2.5q-24 0 -44 9t-35 24.5t-23.5 36.5t-8.5 46q0 23 8.5 44t25.5 37.5t42 26t58 9.5q34 0 59.5 -9.5t42.5 -25.5t25.5 -37t8.5 -45q0 -20 -6 -39.5t-19 -39.5l-98 -150h-77v5zM97 112q0 -27 16 -41t44 -14q29 0 45 14t16 41
t-16 40.5t-45 13.5q-28 0 -44 -13.5t-16 -40.5z" />
    <glyph glyph-name="parenleftinferior" unicode="&#x208d;" horiz-adv-x="176" 
d="M29 50q0 36 7 69t18 62.5t24.5 55t27.5 47.5l45 -22q-25 -49 -39.5 -102t-14.5 -110q0 -58 14.5 -111t39.5 -102l-45 -22q-14 22 -27.5 47.5t-24.5 55t-18 63t-7 69.5z" />
    <glyph glyph-name="parenrightinferior" unicode="&#x208e;" horiz-adv-x="176" 
d="M147 50q0 -36 -7 -69.5t-18 -63t-24.5 -55t-27.5 -47.5l-45 22q25 49 39.5 102t14.5 111q0 57 -14.5 110t-39.5 102l45 22q14 -22 27.5 -47.5t24.5 -55t18 -62.5t7 -69v0z" />
    <glyph glyph-name="uni20A1" unicode="&#x20a1;" 
d="M474 675q14 -5 28 -11t28 -13l-25 -73q-12 5 -23.5 9.5t-22.5 8.5l-91 -526q33 0 66 7t71 25l25 -73q-42 -21 -85 -32.5t-84 -11.5q-2 0 -4.5 0.5t-4.5 0.5l-16 -94h-59l18 100q-15 3 -29 7.5t-28 11.5l-21 -119h-58l26 152q-58 46 -87.5 121.5t-29.5 174.5
q0 71 15.5 131t45 106t72.5 75t99 39l14 79h58l-13 -75q16 -1 30.5 -2.5t28.5 -3.5l15 81h58zM255 99q12 -8 25.5 -14t30.5 -10l92 533q-11 1 -21 1.5t-21 0.5q-5 0 -9 -0.5t-9 -0.5zM164 340q0 -60 10 -107.5t31 -82.5l77 446q-61 -26 -89.5 -92t-28.5 -164z" />
    <glyph glyph-name="lira" unicode="&#x20a4;" horiz-adv-x="542" 
d="M242 211q-1 -53 -19.5 -82.5t-37.5 -43.5v-2h306v-83h-422v71q9 7 22 16.5t25.5 24t21.5 34t9 47.5v18h-88v74h82q-2 22 -5.5 45t-5.5 46h-71v74h64q-1 13 -1.5 25.5t-0.5 24.5q0 95 55 145t146 50q43 0 85.5 -12.5t85.5 -33.5l-26 -74q-43 19 -75.5 27t-69.5 8
q-22 0 -41 -6t-33.5 -19.5t-23 -34.5t-8.5 -51v-23t2 -26h199v-74h-192l11 -91h181v-74h-175z" />
    <glyph glyph-name="uni20A6" unicode="&#x20a6;" 
d="M512 223v-223h-115l-97 223h-136v-223h-92v223h-49v72h49v73h-49v72h49v240h114l104 -240h130v240h92v-240h55v-72h-55v-73h55v-72h-55zM354 295h69l-2 73h-99zM160 368l3 -73h105l-31 73h-77zM430 125l-4 98h-41l43 -98h2zM154 555l4 -115h48l-50 115h-2z" />
    <glyph glyph-name="rupee" unicode="&#x20a8;" 
d="M434 440q-6 -42 -27 -72.5t-51.5 -50.5t-68.5 -29.5t-78 -10.5l256 -261v-16h-100l-284 294v63h110q73 0 106.5 21t41.5 62h-268l20 74h246q-11 39 -45.5 61t-100.5 22h-120l20 83h441l-20 -74h-145v-2q26 -19 42 -41.5t22 -48.5h101l-20 -74h-78z" />
    <glyph glyph-name="uni20AA" unicode="&#x20aa;" horiz-adv-x="717" 
d="M396 184v250q0 51 -5 82.5t-22 49.5t-48.5 24.5t-83.5 6.5h-73v-597h-92v680h178q68 0 113.5 -12t73.5 -40.5t39.5 -76t11.5 -117.5v-250h-92zM649 680v-434q0 -71 -11.5 -118t-39.5 -75.5t-73.5 -40.5t-113.5 -12h-178v496h92v-413h73q52 0 83.5 6.5t48.5 24.5t22 49.5
t5 82.5v434h92z" />
    <glyph glyph-name="dong" unicode="&#x20ab;" 
d="M476 578v-453h-65l-10 35h-2q-24 -15 -63 -31.5t-90 -16.5q-49 0 -84.5 16.5t-59 45t-34.5 66t-11 80.5q0 42 11 79.5t34.5 65.5t59 44.5t84.5 16.5q51 0 83 -12.5t55 -26.5h2v91h-102v71h102v51h90v-51h56v-71h-56zM386 419q-21 14 -52 22.5t-63 8.5q-34 0 -57.5 -10
t-37.5 -27.5t-20.5 -41.5t-6.5 -51q0 -28 6.5 -52t20.5 -41.5t37.5 -27.5t57.5 -10q32 0 63 8.5t52 22.5v199zM87 0v70h389v-70h-389z" />
    <glyph glyph-name="Euro" unicode="&#x20ac;" 
d="M207 218q18 -70 60 -109t117 -39q34 0 69.5 6.5t73.5 25.5l25 -73q-41 -21 -84 -32.5t-84 -11.5q-112 0 -179.5 62.5t-90.5 170.5h-85l22 74h51q-1 16 -1 26.5v21.5v20t1 24h-73l22 74h62q23 109 90.5 173t180.5 64q41 0 84 -11.5t84 -32.5l-25 -73q-38 18 -73.5 25
t-69.5 7q-76 0 -118 -40t-59 -112h287l-21 -74h-278q-2 -13 -2 -23.5v-20.5q0 -11 0.5 -22.5t1.5 -25.5h256l-21 -74h-223z" />
    <glyph glyph-name="uni20AD" unicode="&#x20ad;" 
d="M337 296l213 -286v-10h-114l-209 296h-22v-296h-92v296h-65v74h65v310h92v-310h21l203 310h108v-10l-202 -300h170v-74h-168z" />
    <glyph glyph-name="uni20AE" unicode="&#x20ae;" 
d="M442 256l-99 -36v-220h-92v186l-101 -36v72l101 36v68l-101 -36v72l101 36v199h-199v83h489v-83h-198v-165l99 36v-72l-99 -36v-68l99 36v-72z" />
    <glyph glyph-name="uni20B1" unicode="&#x20b1;" 
d="M499 323q-20 -69 -70.5 -105t-135.5 -36h-99v-182h-92v323h-58v74h58v65h-58v74h58v144h191q86 0 136.5 -37t70.5 -107h58v-74h-46q0 -8 0.5 -15.5t0.5 -15.5q0 -9 -0.5 -17.5t-0.5 -16.5h46v-74h-59zM418 431v15.5t-1 15.5h-223v-65h222q1 8 1.5 16.5t0.5 17.5zM285 265
q80 0 111 58h-202v-58h91zM194 536h204q-16 29 -43.5 45t-69.5 16h-91v-61z" />
    <glyph glyph-name="uni20B2" unicode="&#x20b2;" 
d="M336 695q28 -1 54 -6.5t49 -14.5t43.5 -20t37.5 -22l-31 -73q-33 21 -73.5 35t-79.5 16v-540q27 1 51 7.5t44 22.5v162l-56 14v63h149v-285q-35 -27 -85 -46.5t-103 -22.5v-93h-67v97q-55 9 -95.5 38.5t-67 75.5t-39.5 106.5t-13 130.5q0 69 12.5 128.5t38.5 105.5
t66.5 76t97.5 40v80h67v-75zM149 340q0 -51 6.5 -95.5t21 -79t37 -58t55.5 -32.5v527q-64 -20 -92 -88t-28 -174z" />
    <glyph glyph-name="uni20B4" unicode="&#x20b4;" 
d="M188 211q-2 -8 -3 -16t-1 -16q0 -57 32 -83t85 -26q25 0 48 4.5t44 12.5t40.5 19.5t36.5 25.5l38 -73q-18 -14 -40.5 -27.5t-48 -24t-55.5 -16.5t-63 -6q-48 0 -86 15t-64 41t-39.5 61t-13.5 76v16.5t2 16.5h-43v74h80q13 15 29 27.5t35 23.5l71 40h-215v74h333
q8 11 12.5 24.5t4.5 31.5q0 45 -32.5 74.5t-91.5 29.5q-18 0 -36.5 -3t-36.5 -9t-36 -14.5t-35 -18.5l-35 74q16 10 37 20t44.5 18t48.5 13t49 5q50 0 89 -14.5t65.5 -40t40.5 -59t14 -72.5q0 -17 -3 -31t-8 -28h49v-74h-107q-12 -10 -24.5 -17.5t-26.5 -15.5l-106 -58h264
v-74h-342z" />
    <glyph glyph-name="uni20B5" unicode="&#x20b5;" 
d="M365 695q39 -1 80 -12.5t82 -31.5l-25 -73q-38 18 -71 24.5t-66 7.5v-540q33 0 66 7t71 25l25 -73q-41 -20 -82 -31.5t-80 -12.5v-93h-70v99q-56 10 -99 39.5t-72 74.5t-44 104.5t-15 130.5q0 70 15 129.5t44 105t72 74.5t99 40v81h70v-75zM160 340q0 -105 32.5 -173.5
t102.5 -88.5v524q-70 -20 -102.5 -88.5t-32.5 -173.5z" />
    <glyph glyph-name="afii61289" unicode="&#x2113;" horiz-adv-x="404" 
d="M375 35q-26 -22 -57 -36t-66 -14q-62 0 -87.5 35t-25.5 89v138l-15 -12.5t-19.5 -15.5t-22.5 -17t-24 -17l-35 56l22.5 15t29.5 20.5t33 24.5t31 25v237q0 43 9 72t24 47t35.5 25.5t43.5 7.5q51 0 79 -31t28 -90q0 -78 -38 -155t-116 -151v-175q0 -10 1.5 -21.5t7 -21
t15 -15.5t24.5 -6q25 0 52 12t49 31zM290 586q0 32 -10 48.5t-30 16.5q-25 0 -35.5 -23t-10.5 -68v-184q38 45 62 97.5t24 112.5z" />
    <glyph glyph-name="afii61352" unicode="&#x2116;" horiz-adv-x="1081" 
d="M529 145v535h92v-680h-95l-341 535h-2v-535h-92v680h94l342 -535h2zM788 502q0 -47 20.5 -70t61.5 -23q42 0 63 23t21 70q0 46 -21 69t-63 23q-41 0 -61.5 -23t-20.5 -69zM1031 502q0 -33 -9.5 -62.5t-29.5 -51t-50 -34.5t-72 -13q-41 0 -70.5 13t-49.5 34.5t-29.5 51
t-9.5 62.5t9.5 62.5t29.5 51t49.5 34.5t70.5 13q42 0 72 -13t50 -34.5t29.5 -51t9.5 -62.5zM738 208v69h265v-69h-265z" />
    <glyph glyph-name="uni2117" unicode="&#x2117;" horiz-adv-x="822" 
d="M56 340q0 75 27 140t75 113t113 75t140 27t140 -27t113 -75t75 -113t27 -140t-27 -140t-75 -113t-113 -75t-140 -27t-140 27t-113 75t-75 113t-27 140zM112 340q0 -64 22.5 -119.5t62.5 -96t95 -63.5t119 -23t119 23t95 63.5t62.5 96t22.5 119.5t-22.5 119.5t-62.5 96
t-95 63.5t-119 23t-119 -23t-95 -63.5t-62.5 -96t-22.5 -119.5zM289 153v374h144q34 0 58.5 -9t40.5 -25t23 -38.5t7 -49.5t-7.5 -49t-23 -38.5t-40 -25.5t-58.5 -9h-74v-130h-70zM359 343h69q32 0 46.5 17.5t14.5 44.5q0 28 -14.5 45t-46.5 17h-69v-124z" />
    <glyph glyph-name="trademark" unicode="&#x2122;" horiz-adv-x="737" 
d="M297 700v-53h-84v-227h-65v227h-85v53h234zM504 562l78 138h74v-280h-64v186h-1l-62 -119h-51l-61 119h-1v-186h-65v280h74l79 -138v0z" />
    <glyph glyph-name="Omega" unicode="&#x2126;" horiz-adv-x="733" 
d="M69 83h135q-27 20 -52.5 48t-44.5 65t-30.5 81.5t-11.5 97.5q0 58 17 115.5t53.5 103t93.5 73.5t138 28t138 -28t93 -73.5t53 -103t17 -115.5q0 -53 -11.5 -97.5t-30.5 -81.5t-44.5 -65t-52.5 -48h135v-83h-243v79q35 24 63 52t48 63.5t30.5 78.5t10.5 97q0 45 -10 88.5
t-33.5 77t-63 54t-99.5 20.5q-59 0 -99 -20.5t-64 -54t-34 -76.5t-10 -89q0 -53 11 -96.5t30.5 -78.5t47.5 -63.5t63 -52.5v-79h-243v83z" />
    <glyph glyph-name="estimated" unicode="&#x212e;" horiz-adv-x="677" 
d="M587 106q-47 -65 -104.5 -93t-137.5 -28q-65 0 -117 24t-89.5 65.5t-57.5 97t-20 118.5q0 64 20 119t57.5 95.5t89.5 64t117 23.5q63 0 115 -21.5t89.5 -60t59 -92t23.5 -118.5l-7 -10h-445v-201q32 -31 74.5 -46.5t90.5 -15.5q62 0 114.5 24t90.5 82zM511 491
q-35 33 -77.5 48t-88.5 15q-48 0 -90.5 -15t-74.5 -48v-161h331v161z" />
    <glyph glyph-name="onethird" unicode="&#x2153;" horiz-adv-x="716" 
d="M74 0v10l447 670h76v-10l-447 -670h-76zM470 200h60q32 0 44.5 12t12.5 30q0 21 -13.5 32t-42.5 11q-20 0 -43.5 -4.5t-42.5 -12.5l-20 55q22 11 50.5 17t58.5 6q60 0 94 -25.5t34 -68.5q0 -32 -17.5 -51t-36.5 -24v-1q27 -9 44 -30t17 -55q0 -45 -35 -72t-105 -27
q-37 0 -64 7.5t-49 18.5l19 57q20 -10 43.5 -16t49.5 -6q30 0 49.5 10.5t19.5 36.5q0 22 -16.5 31t-50.5 9h-60v60zM41 561v63l122 56h52v-338h-71v261h-1l-93 -42h-9z" />
    <glyph glyph-name="twothirds" unicode="&#x2154;" horiz-adv-x="778" 
d="M136 0v10l447 670h76v-10l-447 -670h-76zM532 200h60q32 0 44.5 12t12.5 30q0 21 -13.5 32t-42.5 11q-20 0 -43.5 -4.5t-42.5 -12.5l-20 55q22 11 50.5 17t58.5 6q60 0 94 -25.5t34 -68.5q0 -32 -17.5 -51t-36.5 -24v-1q27 -9 44 -30t17 -55q0 -45 -35 -72t-105 -27
q-37 0 -64 7.5t-49 18.5l19 57q20 -10 43.5 -16t49.5 -6q30 0 49.5 10.5t19.5 36.5q0 22 -16.5 31t-50.5 9h-60v60zM153 400h145v-60h-246v51l134 117q17 14 26 29.5t9 34.5q0 29 -17 41t-39 12q-24 0 -42 -11.5t-34 -25.5l-38 48q8 7 19 16t25.5 16.5t33.5 12.5t42 5
q25 0 47.5 -7.5t39.5 -21t26.5 -34t9.5 -45.5q0 -37 -17 -62t-39 -43l-85 -72v-1z" />
    <glyph glyph-name="oneeighth" unicode="&#x215b;" horiz-adv-x="719" 
d="M41 561v63l122 56h52v-338h-71v261h-1l-93 -42h-9zM74 0v10l447 670h76v-10l-447 -670h-76zM540 53q35 0 48.5 12.5t13.5 32.5q0 21 -13.5 34t-48.5 13t-48.5 -13t-13.5 -34q0 -20 13.5 -32.5t48.5 -12.5zM540 346q63 0 92 -26t29 -68q0 -31 -16 -48t-35 -25v-1
q28 -11 46 -33t18 -54q0 -45 -33.5 -72t-100.5 -27t-101 27t-34 72q0 32 18.5 54t44.5 33v1q-18 8 -33.5 25t-15.5 48q0 42 29 68t92 26zM540 205q25 0 37.5 9.5t12.5 29.5q0 19 -12.5 30t-37.5 11q-26 0 -38 -11t-12 -30q0 -20 12 -29.5t38 -9.5z" />
    <glyph glyph-name="threeeighths" unicode="&#x215c;" horiz-adv-x="769" 
d="M124 0v10l447 670h76v-10l-447 -670h-76zM590 53q35 0 48.5 12.5t13.5 32.5q0 21 -13.5 34t-48.5 13t-48.5 -13t-13.5 -34q0 -20 13.5 -32.5t48.5 -12.5zM590 346q63 0 92 -26t29 -68q0 -31 -16 -48t-35 -25v-1q28 -11 46 -33t18 -54q0 -45 -33.5 -72t-100.5 -27t-101 27
t-34 72q0 32 18.5 54t44.5 33v1q-18 8 -33.5 25t-15.5 48q0 42 29 68t92 26zM590 205q25 0 37.5 9.5t12.5 29.5q0 19 -12.5 30t-37.5 11q-26 0 -38 -11t-12 -30q0 -20 12 -29.5t38 -9.5zM98 539h60q32 0 44.5 12t12.5 30q0 21 -13.5 32t-42.5 11q-20 0 -43.5 -4.5
t-42.5 -12.5l-20 55q22 11 50.5 17t58.5 6q60 0 94 -25.5t34 -68.5q0 -32 -17.5 -51t-36.5 -24v-1q27 -9 44 -30t17 -55q0 -45 -35 -72t-105 -27q-37 0 -64 7.5t-49 18.5l19 57q20 -10 43.5 -16t49.5 -6q30 0 49.5 10.5t19.5 36.5q0 22 -16.5 31t-50.5 9h-60v60z" />
    <glyph glyph-name="fiveeighths" unicode="&#x215d;" horiz-adv-x="755" 
d="M110 0v10l447 670h76v-10l-447 -670h-76zM576 53q35 0 48.5 12.5t13.5 32.5q0 21 -13.5 34t-48.5 13t-48.5 -13t-13.5 -34q0 -20 13.5 -32.5t48.5 -12.5zM576 346q63 0 92 -26t29 -68q0 -31 -16 -48t-35 -25v-1q28 -11 46 -33t18 -54q0 -45 -33.5 -72t-100.5 -27t-101 27
t-34 72q0 32 18.5 54t44.5 33v1q-18 8 -33.5 25t-15.5 48q0 42 29 68t92 26zM576 205q25 0 37.5 9.5t12.5 29.5q0 19 -12.5 30t-37.5 11q-26 0 -38 -11t-12 -30q0 -20 12 -29.5t38 -9.5zM67 503l20 177h192v-59h-133l-8 -64h24q57 0 93.5 -25.5t36.5 -82.5q0 -54 -38 -84.5
t-107 -30.5q-18 0 -48 4.5t-56 14.5l16 60q23 -10 48 -14t42 -4q69 0 69 54q0 47 -65 47q-23 0 -42.5 -0.5t-33.5 -1.5z" />
    <glyph glyph-name="seveneighths" unicode="&#x215e;" horiz-adv-x="711" 
d="M66 0v10l447 670h76v-10l-447 -670h-76zM532 53q35 0 48.5 12.5t13.5 32.5q0 21 -13.5 34t-48.5 13t-48.5 -13t-13.5 -34q0 -20 13.5 -32.5t48.5 -12.5zM532 346q63 0 92 -26t29 -68q0 -31 -16 -48t-35 -25v-1q28 -11 46 -33t18 -54q0 -45 -33.5 -72t-100.5 -27t-101 27
t-34 72q0 32 18.5 54t44.5 33v1q-18 8 -33.5 25t-15.5 48q0 42 29 68t92 26zM532 205q25 0 37.5 9.5t12.5 29.5q0 19 -12.5 30t-37.5 11q-26 0 -38 -11t-12 -30q0 -20 12 -29.5t38 -9.5zM82 347l131 273v1h-166v59h243v-51l-135 -287h-73v5z" />
    <glyph glyph-name="arrowleft" unicode="&#x2190;" horiz-adv-x="892" 
d="M420 719l56 -57l-295 -285h711v-76h-711l295 -286l-56 -56l-380 380z" />
    <glyph glyph-name="arrowup" unicode="&#x2191;" horiz-adv-x="892" 
d="M845 383l-57 -55l-285 294l-1 -710h-75v710l-286 -294l-56 55l380 380z" />
    <glyph glyph-name="arrowright" unicode="&#x2192;" horiz-adv-x="892" 
d="M512 -41l-57 56l296 286h-711v76h711l-296 285l57 57l380 -380z" />
    <glyph glyph-name="arrowdown" unicode="&#x2193;" horiz-adv-x="892" 
d="M85 292l56 55l286 -294l1 710h75v-710l285 294l57 -55l-380 -380z" />
    <glyph glyph-name="uni2196" unicode="&#x2196;" horiz-adv-x="896" 
d="M698 662v-81l-412 6l503 -503l-54 -52l-501 503l6 -412h-81v539h539z" />
    <glyph glyph-name="uni2197" unicode="&#x2197;" horiz-adv-x="895" 
d="M804 124h-81l6 412l-501 -503l-53 54l502 501l-412 -7v81h539v-538z" />
    <glyph glyph-name="uni2198" unicode="&#x2198;" horiz-adv-x="895" 
d="M266 18v81l412 -6l-503 501l54 53l501 -502l-6 412h81v-539h-539z" />
    <glyph glyph-name="uni2199" unicode="&#x2199;" horiz-adv-x="896" 
d="M159 557h81l-6 -412l501 502l54 -53l-503 -501l412 6v-81h-539v539z" />
    <glyph glyph-name="partialdiff" unicode="&#x2202;" horiz-adv-x="585" 
d="M172 700q94 0 161 -28t110 -77.5t63 -116t20 -142.5q0 -87 -19.5 -152.5t-53 -109.5t-79.5 -66.5t-99 -22.5q-57 0 -100 18.5t-72.5 51.5t-44.5 77.5t-15 95.5q0 55 16 100t44.5 77.5t67.5 50t85 17.5q28 0 53 -5t46 -13.5t38 -19.5t29 -23l2 1q-7 61 -30.5 100t-59 61.5
t-81 31t-97.5 9.5zM428 317q-18 26 -57.5 48.5t-96.5 22.5q-60 0 -98 -40t-38 -121q0 -33 9.5 -62t27.5 -50t43 -33t56 -12q34 0 62 16t48.5 47t32 77t11.5 107z" />
    <glyph glyph-name="Delta" unicode="&#x2206;" horiz-adv-x="657" 
d="M630 0h-603v5l255 675h93l255 -675v-5zM327 572l-178 -489h359l-179 489h-2z" />
    <glyph glyph-name="product" unicode="&#x220f;" horiz-adv-x="695" 
d="M516 617h-337v-815h-92v898h521v-898h-92v815z" />
    <glyph glyph-name="summation" unicode="&#x2211;" horiz-adv-x="581" 
d="M37 -125l258 383l-242 368v74h473v-83h-366l238 -355l-255 -377h398v-83h-504v73z" />
    <glyph glyph-name="minus" unicode="&#x2212;" 
d="M533 307v-74h-477v74h477z" />
    <glyph glyph-name="uni2215" unicode="&#x2215;" horiz-adv-x="535" 
d="M6 0v10l447 670h76v-10l-447 -670h-76z" />
    <glyph glyph-name="uni2219" unicode="&#x2219;" horiz-adv-x="264" 
d="M68 290q0 29 17.5 47t46.5 18t46.5 -18t17.5 -47t-17.5 -47t-46.5 -18t-46.5 18t-17.5 47z" />
    <glyph glyph-name="radical" unicode="&#x221a;" horiz-adv-x="612" 
d="M19 222h88l131 -306h2l281 764h83l-315 -878h-91l-179 410v10z" />
    <glyph glyph-name="infinity" unicode="&#x221e;" horiz-adv-x="749" 
d="M537 116q-23 0 -42.5 5.5t-38.5 17t-39 29.5t-42 43q-23 -24 -43.5 -42t-40 -30t-39.5 -17.5t-41 -5.5q-33 0 -60.5 11.5t-48 32t-32 49t-11.5 62.5t11.5 62t32 48.5t49 31.5t61.5 11q21 0 39.5 -5.5t37.5 -17.5t39.5 -30.5t44.5 -44.5q25 27 45 45.5t39 30t38 17t41 5.5
q32 0 60 -11t48.5 -31t32.5 -48.5t12 -62.5t-11.5 -62.5t-32 -49t-48.5 -32t-61 -11.5zM537 193q36 0 55.5 23.5t19.5 54.5q0 32 -19.5 54t-55.5 22q-24 0 -49 -16.5t-63 -59.5q39 -43 63.5 -60.5t48.5 -17.5zM213 193q23 0 49 19t62 59q-37 42 -62 59t-49 17
q-37 0 -56.5 -22t-19.5 -54t19.5 -55t56.5 -23z" />
    <glyph glyph-name="integral" unicode="&#x222b;" horiz-adv-x="524" 
d="M268 538q15 84 58.5 120.5t118.5 36.5q15 0 34 -2t33 -4l-9 -80q-11 2 -28 4.5t-31 2.5q-36 0 -56.5 -15t-28.5 -56l-106 -601q-15 -84 -57.5 -120.5t-117.5 -36.5q-15 0 -34.5 2t-32.5 4l9 80q10 -2 27.5 -4.5t31.5 -2.5q35 0 55 15t28 56z" />
    <glyph glyph-name="approxequal" unicode="&#x2248;" 
d="M70 383q16 26 46.5 43t75.5 17q24 0 52 -8t56.5 -17.5t55 -17.5t47.5 -8q23 0 41.5 7.5t37.5 26.5l36 -50q-25 -33 -55.5 -45.5t-65.5 -12.5q-22 0 -50.5 8t-57 17.5t-55 17.5t-44.5 8q-20 0 -41.5 -6.5t-42.5 -28.5zM70 166q16 26 46.5 43t75.5 17q24 0 52 -8
t56.5 -17.5t55 -17.5t47.5 -8q23 0 41.5 7.5t37.5 26.5l36 -50q-25 -33 -55.5 -45.5t-65.5 -12.5q-22 0 -50.5 8t-57 17.5t-55 17.5t-44.5 8q-20 0 -41.5 -6.5t-42.5 -28.5z" />
    <glyph glyph-name="notequal" unicode="&#x2260;" 
d="M153 0v10l45 116h-122v74h150l55 143h-205v74h234l48 124h78v-10l-44 -114h121v-74h-149l-55 -143h204v-74h-233l-48 -126h-79z" />
    <glyph glyph-name="lessequal" unicode="&#x2264;" 
d="M518 155l-468 201v69l468 201h9v-84l-381 -150v-3l381 -150v-84h-9zM527 74v-74h-477v74h477z" />
    <glyph glyph-name="greaterequal" unicode="&#x2265;" 
d="M63 155v84l381 150v3l-381 150v84h9l468 -201v-69l-468 -201h-9zM540 74v-74h-477v74h477z" />
    <glyph glyph-name="lozenge" unicode="&#x25ca;" horiz-adv-x="557" 
d="M29 327l219 353h57l223 -333l-218 -347h-59zM436 342l-161 252l-154 -264l162 -245z" />
    <glyph glyph-name="whitecircle" unicode="&#x25cb;" horiz-adv-x="800" 
d="M60 341q0 72 26 134t71.5 107.5t107.5 71.5t134 26t134.5 -26t108.5 -71.5t72 -107.5t26 -134t-26 -134.5t-72 -108.5t-108.5 -72t-134.5 -26t-134 26t-107.5 72t-71.5 108.5t-26 134.5zM125 341q0 -59 21 -109.5t57.5 -88t86.5 -58.5t109 -21q58 0 108.5 21t87.5 58.5
t58 88t21 109.5q0 58 -21 108.5t-58 87.5t-87.5 58t-108.5 21q-59 0 -109 -21t-86.5 -58t-57.5 -87.5t-21 -108.5z" />
    <glyph glyph-name="blackcircle" unicode="&#x25cf;" horiz-adv-x="800" 
d="M60 340q0 73 26 135t71.5 107.5t107.5 71.5t135 26q72 0 134.5 -26t108 -71.5t71.5 -107.5t26 -135q0 -72 -26 -134.5t-71.5 -108t-108 -71.5t-134.5 -26q-73 0 -135 26t-107.5 71.5t-71.5 108t-26 134.5z" />
    <glyph glyph-name="uni25DC" unicode="&#x25dc;" horiz-adv-x="339" 
d="M339 616q-59 0 -109 -21t-86.5 -58t-57.5 -87.5t-21 -108.5h-65q0 72 26 134t71.5 107.5t107.5 71.5t134 26v-64z" />
    <glyph glyph-name="uni25DD" unicode="&#x25dd;" horiz-adv-x="341" 
d="M0 680q72 0 134.5 -26t108.5 -71.5t72 -107.5t26 -134h-66q0 58 -21 108.5t-58 87.5t-87.5 58t-108.5 21v64z" />
    <glyph glyph-name="uni25DE" unicode="&#x25de;" horiz-adv-x="341" 
d="M0 64q58 0 108.5 21t87.5 58.5t58 88t21 109.5h66q0 -72 -26 -134.5t-72 -108.5t-108.5 -72t-134.5 -26v64z" />
    <glyph glyph-name="uni25DF" unicode="&#x25df;" horiz-adv-x="339" 
d="M339 0q-72 0 -134 26t-107.5 72t-71.5 108.5t-26 134.5h65q0 -59 21 -109.5t57.5 -88t86.5 -58.5t109 -21v-64z" />
    <glyph glyph-name="uniEA01" unicode="&#xea01;" horiz-adv-x="1000" 
d="M69 765h861v-861h-861v861zM857 -23v715h-715v-715h715zM598 305h-195v-195h-98v469h98v-192h195v192h98v-469h-98v195z" />
    <glyph glyph-name="uniEA02" unicode="&#xea02;" horiz-adv-x="1000" 
d="M69 765h861v-861h-861v861zM857 -23v715h-715v-715h715zM295 344q0 55 15 100t44.5 77t72 50t97.5 18q33 0 67.5 -7.5t67.5 -22.5l-27 -78q-30 14 -54.5 19t-53.5 5q-58 0 -92 -44.5t-34 -116.5q0 -36 9 -65.5t25.5 -50.5t39.5 -33t52 -12t53.5 5t54.5 19l27 -78
q-33 -14 -67.5 -22t-67.5 -8q-55 0 -97.5 17.5t-72 50t-44.5 77.5t-15 100z" />
    <glyph glyph-name="uniEA03" unicode="&#xea03;" horiz-adv-x="1000" 
d="M69 765h861v-861h-861v861zM857 -23v715h-715v-715h715zM361 222q12 -8 27.5 -15t33 -12.5t36.5 -9t37 -3.5q73 0 73 56q0 22 -14 34.5t-52 24.5l-51 16q-65 21 -89 54.5t-24 77.5q0 66 44 105t125 39q32 0 69 -7.5t72 -25.5l-28 -78q-28 14 -58 21t-56 7
q-35 0 -51.5 -13.5t-16.5 -37.5q0 -18 10 -31t39 -22l50 -16q66 -22 98.5 -52.5t32.5 -84.5q0 -35 -12.5 -62.5t-35 -47t-54 -30t-68.5 -10.5q-51 0 -93.5 13.5t-73.5 31.5z" />
    <glyph glyph-name="uniEA04" unicode="&#xea04;" horiz-adv-x="1000" 
d="M69 765h861v-861h-861v861zM598 110h98v469h-98v-192h-195v192h-98v-469h98v195h195v-195z" />
    <glyph glyph-name="uniEA05" unicode="&#xea05;" horiz-adv-x="1000" 
d="M69 765h861v-861h-861v861zM295 344q0 -55 15 -100t44.5 -77.5t72 -50t97.5 -17.5q33 0 67.5 8t67.5 22l-27 78q-30 -14 -54.5 -19t-53.5 -5t-52 12t-39.5 33t-25.5 50.5t-9 65.5q0 72 34 116.5t92 44.5q29 0 53.5 -5t54.5 -19l27 78q-33 15 -67.5 22.5t-67.5 7.5
q-55 0 -97.5 -18t-72 -50t-44.5 -77t-15 -100z" />
    <glyph glyph-name="uniEA06" unicode="&#xea06;" horiz-adv-x="1000" 
d="M69 765h861v-861h-861v861zM331 144q31 -18 73.5 -31.5t93.5 -13.5q37 0 68.5 10.5t54 30t35 47t12.5 62.5q0 54 -32.5 84.5t-98.5 52.5l-50 16q-29 9 -39 22t-10 31q0 24 16.5 37.5t51.5 13.5q26 0 56 -7t58 -21l28 78q-35 18 -72 25.5t-69 7.5q-81 0 -125 -39t-44 -105
q0 -44 24 -77.5t89 -54.5l51 -16q38 -12 52 -24.5t14 -34.5q0 -56 -73 -56q-18 0 -37 3.5t-36.5 9t-33 12.5t-27.5 15z" />
    <glyph glyph-name="commaaccent" unicode="&#xf6c3;" 
d="M238 -208l20 141h93v-10l-42 -141h-71v10z" />
    <glyph glyph-name="commainferior" unicode="&#xf6e1;" horiz-adv-x="191" 
d="M25 -210l28 180h97v-9l-58 -181h-67v10z" />
    <glyph glyph-name="commasuperior" unicode="&#xf6e2;" horiz-adv-x="191" 
d="M25 371l28 180h97v-9l-58 -181h-67v10z" />
    <glyph glyph-name="hypheninferior" unicode="&#xf6e5;" horiz-adv-x="248" 
d="M45 28v59h158v-59h-158z" />
    <glyph glyph-name="hyphensuperior" unicode="&#xf6e6;" horiz-adv-x="248" 
d="M45 609v59h158v-59h-158z" />
    <glyph glyph-name="periodinferior" unicode="&#xf6e7;" horiz-adv-x="180" 
d="M37 -74q0 24 14.5 39t38.5 15t38 -15t14 -39q0 -23 -14 -38t-38 -15t-38.5 15t-14.5 38z" />
    <glyph glyph-name="periodsuperior" unicode="&#xf6e8;" horiz-adv-x="180" 
d="M37 507q0 24 14.5 39t38.5 15t38 -15t14 -39q0 -23 -14 -38t-38 -15t-38.5 15t-14.5 38z" />
    <glyph glyph-name="uniF8FF" unicode="&#xf8ff;" horiz-adv-x="585" 
d="M86 680h413v-680h-413v680zM441 58v564h-297v-564h297z" />
    <glyph glyph-name="fi" unicode="&#xfb01;" horiz-adv-x="605" 
d="M440 0v408h-236v-408h-90v408h-86v54l86 20v66q0 83 39.5 120t114.5 37q15 0 34.5 -2t33.5 -4v-80q-11 2 -28.5 4.5t-31.5 2.5q-36 0 -54 -15t-18 -56v-73h326v-482h-90zM428 624q0 26 15.5 41t41.5 15q27 0 42.5 -15t15.5 -41t-15.5 -41.5t-42.5 -15.5q-26 0 -41.5 15.5
t-15.5 41.5z" />
    <glyph glyph-name="fl" unicode="&#xfb02;" horiz-adv-x="629" 
d="M114 0v408h-86v54l86 20v66q0 83 39.5 120t114.5 37q15 0 34.5 -2t33.5 -4v-80q-11 2 -28.5 4.5t-31.5 2.5q-36 0 -54 -15t-18 -56v-73h132v-74h-132v-408h-90zM602 -4q-11 -3 -26.5 -5.5t-32.5 -2.5q-54 0 -78 29.5t-24 81.5v601h90v-607q0 -13 4.5 -19.5t23.5 -6.5h43
v-71z" />
    <glyph glyph-name="zero.lf" horiz-adv-x="640" 
d="M157 340q0 -63 8 -113.5t27 -85t50.5 -53t78.5 -18.5t78 18.5t50 53t26.5 85t7.5 113.5t-7.5 113.5t-26.5 85t-50 53t-78 18.5t-78.5 -18.5t-50.5 -53t-27 -85t-8 -113.5zM578 340q0 -82 -14.5 -147.5t-45.5 -111.5t-79.5 -71t-117.5 -25t-118 25t-80.5 71t-46 111.5
t-14.5 147.5t14.5 147.5t46 111.5t80.5 71t118 25t117.5 -25t79.5 -71t45.5 -111.5t14.5 -147.5z" />
    <glyph glyph-name="one.lf" horiz-adv-x="382" 
d="M33 523v81l182 76h76v-680h-92v583h-2l-151 -60h-13z" />
    <glyph glyph-name="two.lf" horiz-adv-x="552" 
d="M181 83h313v-83h-442v73l252 251q17 17 33 34.5t28 36.5t19.5 40.5t7.5 46.5q0 54 -35.5 91t-99.5 37q-59 0 -96 -18.5t-68 -45.5l-43 64q15 13 35 28t45 27.5t56.5 21t70.5 8.5q49 0 91 -15.5t73 -43t48.5 -67t17.5 -87.5q0 -33 -8 -61t-22.5 -52.5t-34 -47t-43.5 -45.5
l-198 -191v-2z" />
    <glyph glyph-name="three.lf" horiz-adv-x="560" 
d="M141 388h121q67 0 96.5 32.5t29.5 78.5t-31.5 78.5t-94.5 32.5q-47 0 -88.5 -9t-84.5 -26l-28 75q19 10 43 18.5t50.5 14.5t53.5 9t54 3q106 0 163.5 -51.5t57.5 -138.5q0 -28 -8.5 -52.5t-22 -44t-30.5 -34t-34 -21.5v-2q49 -19 80.5 -62.5t31.5 -106.5q0 -45 -18 -81
t-50.5 -62t-77.5 -40t-98 -14q-66 0 -120.5 14t-92.5 37l32 75q44 -22 87.5 -31.5t92.5 -9.5q31 0 58 7.5t47.5 22.5t32.5 37t12 51q0 24 -7 45.5t-24.5 37.5t-46 25t-71.5 9h-115v83z" />
    <glyph glyph-name="four.lf" horiz-adv-x="600" 
d="M367 480h92v-253h100v-83h-100v-144h-92v144h-334v70l208 466h93l-199 -451v-2h232v253z" />
    <glyph glyph-name="five.lf" horiz-adv-x="546" 
d="M85 339l42 341h341v-83h-267l-23 -181q14 1 32.5 1.5t37.5 0.5q54 0 99.5 -12t77.5 -37.5t50 -65.5t18 -96q0 -55 -19.5 -96.5t-54 -69.5t-83.5 -42t-107 -14q-22 0 -47.5 3.5t-51 9t-48.5 12.5t-41 15l24 80q81 -35 164 -35q38 0 69.5 7.5t53.5 24t34 42.5t12 63
q0 62 -37.5 94t-124.5 32q-32 0 -72 -1.5t-70 -3.5z" />
    <glyph glyph-name="six.lf" horiz-adv-x="574" 
d="M375 670l-168 -251l2 -2q14 11 43 19.5t62 8.5q49 0 89.5 -16.5t69.5 -46t45 -71.5t16 -93q0 -49 -16.5 -91.5t-47.5 -74t-76 -49.5t-103 -18q-59 0 -104 18t-76.5 49.5t-47.5 74t-16 91.5q0 48 15 95.5t40 87.5l174 279h99v-10zM439 218q0 69 -40.5 105.5t-107.5 36.5
q-69 0 -109 -36.5t-40 -105.5q0 -67 40 -107.5t109 -40.5q67 0 107.5 40.5t40.5 107.5z" />
    <glyph glyph-name="seven.lf" horiz-adv-x="498" 
d="M129 10l239 585v2h-337v83h437v-70l-242 -610h-97v10z" />
    <glyph glyph-name="eight.lf" horiz-adv-x="609" 
d="M305 70q78 0 114.5 34t36.5 88t-36.5 88t-114.5 34q-81 0 -116.5 -34t-35.5 -88t37 -88t115 -34zM305 695q57 0 98.5 -14.5t68.5 -40t40 -60.5t13 -75q0 -59 -27.5 -94t-60.5 -52v-2q49 -22 81.5 -65.5t32.5 -104.5q0 -44 -15.5 -81t-46 -64t-77 -42t-107.5 -15
q-62 0 -108 15t-77 42t-46.5 64t-15.5 81q0 61 33 104.5t82 65.5v2q-17 9 -32.5 21.5t-28.5 30.5t-20.5 41t-7.5 53q0 40 13 75t40 60.5t69 40t99 14.5zM305 397q62 0 93.5 27.5t31.5 78.5t-31.5 79t-93.5 28q-63 0 -94.5 -28t-31.5 -79t31.5 -78.5t94.5 -27.5z" />
    <glyph glyph-name="nine.lf" horiz-adv-x="573" 
d="M199 10l168 251l-2 2q-14 -11 -43 -19.5t-62 -8.5q-49 0 -89.5 16.5t-69.5 46t-45 71.5t-16 93q0 49 16.5 91.5t47.5 74t76 49.5t103 18t103.5 -18t77 -49.5t47.5 -74t16 -91.5q0 -48 -15 -96t-40 -87l-174 -279h-99v10zM135 462q0 -69 40.5 -105.5t107.5 -36.5
q69 0 109 36.5t40 105.5q0 67 -40 107.5t-109 40.5q-67 0 -107.5 -40.5t-40.5 -107.5z" />
    <glyph glyph-name="a.alt" horiz-adv-x="506" 
d="M282 218q-43 0 -71.5 -5.5t-46 -15.5t-25 -24.5t-7.5 -32.5q0 -39 21.5 -57.5t61.5 -18.5q34 0 69 11t61 30v113h-63zM371 0l-10 44h-2q-33 -25 -73.5 -42t-88.5 -17q-33 0 -62 10t-50 28.5t-33 46.5t-12 64q0 44 17 73.5t47.5 47.5t72 25.5t91.5 7.5h77v25
q0 52 -24.5 78.5t-82.5 26.5q-35 0 -70 -12t-63 -29l-33 67q32 23 74 38t94 15q94 0 144.5 -47.5t50.5 -138.5v-311h-64z" />
    <glyph glyph-name="agrave.alt" horiz-adv-x="506" 
d="M282 218q-43 0 -71.5 -5.5t-46 -15.5t-25 -24.5t-7.5 -32.5q0 -39 21.5 -57.5t61.5 -18.5q34 0 69 11t61 30v113h-63zM371 0l-10 44h-2q-33 -25 -73.5 -42t-88.5 -17q-33 0 -62 10t-50 28.5t-33 46.5t-12 64q0 44 17 73.5t47.5 47.5t72 25.5t91.5 7.5h77v25
q0 52 -24.5 78.5t-82.5 26.5q-35 0 -70 -12t-63 -29l-33 67q32 23 74 38t94 15q94 0 144.5 -47.5t50.5 -138.5v-311h-64zM136 710h98l64 -121v-10h-77l-85 121v10z" />
    <glyph glyph-name="aacute.alt" horiz-adv-x="506" 
d="M282 218q-43 0 -71.5 -5.5t-46 -15.5t-25 -24.5t-7.5 -32.5q0 -39 21.5 -57.5t61.5 -18.5q34 0 69 11t61 30v113h-63zM371 0l-10 44h-2q-33 -25 -73.5 -42t-88.5 -17q-33 0 -62 10t-50 28.5t-33 46.5t-12 64q0 44 17 73.5t47.5 47.5t72 25.5t91.5 7.5h77v25
q0 52 -24.5 78.5t-82.5 26.5q-35 0 -70 -12t-63 -29l-33 67q32 23 74 38t94 15q94 0 144.5 -47.5t50.5 -138.5v-311h-64zM377 700l-85 -121h-77v10l64 121h98v-10z" />
    <glyph glyph-name="acircumflex.alt" horiz-adv-x="506" 
d="M282 218q-43 0 -71.5 -5.5t-46 -15.5t-25 -24.5t-7.5 -32.5q0 -39 21.5 -57.5t61.5 -18.5q34 0 69 11t61 30v113h-63zM371 0l-10 44h-2q-33 -25 -73.5 -42t-88.5 -17q-33 0 -62 10t-50 28.5t-33 46.5t-12 64q0 44 17 73.5t47.5 47.5t72 25.5t91.5 7.5h77v25
q0 52 -24.5 78.5t-82.5 26.5q-35 0 -70 -12t-63 -29l-33 67q32 23 74 38t94 15q94 0 144.5 -47.5t50.5 -138.5v-311h-64zM401 589v-10h-82l-63 74l-63 -74h-82v10l94 121h102z" />
    <glyph glyph-name="atilde.alt" horiz-adv-x="506" 
d="M282 218q-43 0 -71.5 -5.5t-46 -15.5t-25 -24.5t-7.5 -32.5q0 -39 21.5 -57.5t61.5 -18.5q34 0 69 11t61 30v113h-63zM371 0l-10 44h-2q-33 -25 -73.5 -42t-88.5 -17q-33 0 -62 10t-50 28.5t-33 46.5t-12 64q0 44 17 73.5t47.5 47.5t72 25.5t91.5 7.5h77v25
q0 52 -24.5 78.5t-82.5 26.5q-35 0 -70 -12t-63 -29l-33 67q32 23 74 38t94 15q94 0 144.5 -47.5t50.5 -138.5v-311h-64zM104 634q14 20 36 38.5t54 18.5q16 0 33 -6.5t33.5 -14t32.5 -13.5t31 -6q17 0 31.5 9t27.5 26l27 -50q-18 -25 -39.5 -41t-50.5 -16q-17 0 -33 6
t-32.5 13.5t-33 14t-32.5 6.5t-31 -9.5t-27 -25.5z" />
    <glyph glyph-name="adieresis.alt" horiz-adv-x="506" 
d="M282 218q-43 0 -71.5 -5.5t-46 -15.5t-25 -24.5t-7.5 -32.5q0 -39 21.5 -57.5t61.5 -18.5q34 0 69 11t61 30v113h-63zM371 0l-10 44h-2q-33 -25 -73.5 -42t-88.5 -17q-33 0 -62 10t-50 28.5t-33 46.5t-12 64q0 44 17 73.5t47.5 47.5t72 25.5t91.5 7.5h77v25
q0 52 -24.5 78.5t-82.5 26.5q-35 0 -70 -12t-63 -29l-33 67q32 23 74 38t94 15q94 0 144.5 -47.5t50.5 -138.5v-311h-64zM100 634q0 26 15.5 41t41.5 15q27 0 42.5 -15t15.5 -41t-15.5 -41.5t-42.5 -15.5q-26 0 -41.5 15.5t-15.5 41.5zM299 634q0 26 15.5 41t41.5 15
q27 0 42.5 -15t15.5 -41t-15.5 -41.5t-42.5 -15.5q-26 0 -41.5 15.5t-15.5 41.5z" />
    </font>
</defs>
</svg>
