<?xml version="1.0" standalone="no"?>
<!DOCTYPE svg PUBLIC "-//W3C//DTD SVG 1.1//EN" "http://www.w3.org/Graphics/SVG/1.1/DTD/svg11.dtd" >
<svg xmlns="http://www.w3.org/2000/svg">
<metadata>
Created by FontPrep 20130207 at Sat Apr 11 15:15:30 2015
 By Christoph
Copyright (c) 2015 by Volkswagen AG. All rights reserved.
</metadata>
<defs>
<font id="194f5394ae2e9c74dc3c441b92862d1d" >
  <font-face 
    font-family="Font"
    font-weight="300"
    font-stretch="normal"
    units-per-em="2048"
    panose-1="2 11 3 4 4 2 0 0 0 3"
    ascent="1638"
    descent="-410"
    x-height="987"
    cap-height="1393"
    bbox="-373 -451 2075 1858"
    underline-thickness="92"
    underline-position="-135"
    unicode-range="U+0020-FB02"
  />
<missing-glyph horiz-adv-x="1185" 
d="M897 119v1155h-608v-1155h608zM170 1393h846v-1393h-846v1393z" />
    <glyph glyph-name=".notdef" horiz-adv-x="1185" 
d="M897 119v1155h-608v-1155h608zM170 1393h846v-1393h-846v1393z" />
    <glyph glyph-name="glyph1" horiz-adv-x="0" 
 />
    <glyph glyph-name="glyph2" horiz-adv-x="555" 
 />
    <glyph glyph-name="space" unicode=" " horiz-adv-x="542" 
 />
    <glyph glyph-name="exclam" unicode="!" horiz-adv-x="475" 
d="M145 59q0 41 26 66t64.5 25t64.5 -25t26 -66t-26 -65.5t-64.5 -24.5t-64.5 24.5t-26 65.5zM186 1393h103v-392l-19 -604h-65l-19 604v392z" />
    <glyph glyph-name="quotedbl" unicode="&#x22;" horiz-adv-x="714" 
d="M455 1393h98v-217l-16 -353h-66l-16 353v217zM162 1393h98v-217l-16 -353h-66l-16 353v217z" />
    <glyph glyph-name="numbersign" unicode="#" horiz-adv-x="1310" 
d="M426 475h334l121 465h-336zM221 940v92h254l92 361h92v-11l-90 -350h334l94 361h90v-11l-90 -350h222v-92h-244l-119 -465h231v-92h-256l-96 -383h-94v10l96 373h-334l-98 -383h-92v10l94 373h-213v92h238l119 465h-230z" />
    <glyph glyph-name="dollar" unicode="$" 
d="M918 342q0 112 -61.5 175t-188.5 116v-559q104 16 177 86t73 182zM311 1056q0 -98 53.5 -157t176.5 -106l28 -13v541q-125 -14 -191.5 -90.5t-66.5 -174.5zM569 1577h99v-156q189 -11 331 -114l-47 -86q-133 90 -284 102v-580q182 -70 269 -158.5t87 -235.5t-97 -250.5
t-259 -125.5v-194h-99v192q-139 6 -233 52.5t-162 101.5l53 82q148 -129 342 -139v602l-71 28q-293 108 -293 361q0 135 95.5 239.5t268.5 120.5v158z" />
    <glyph glyph-name="percent" unicode="%" horiz-adv-x="1501" 
d="M297 0v10l809 1383h98v-11l-809 -1382h-98zM365 1401q129 0 196 -93q68 -93 70 -253q0 -244 -149 -321q-50 -26 -118 -26t-117 26q-149 76 -149 321t149 320q50 26 118 26zM541 1055q-1 264 -177 264t-176 -265t177 -263q176 0 176 264zM870 334q0 246 149 320
q50 26 118 26q129 0 196 -93q68 -93 70 -253q0 -244 -149 -321q-50 -25 -118 -25t-117 26q-99 51 -132 181q-17 63 -17 139zM961 333q0 -265 176 -263q176 0 176 265t-176 263q-176 0 -176 -265z" />
    <glyph glyph-name="ampersand" unicode="&#x26;" horiz-adv-x="1327" 
d="M365 1123q0 -83 32.5 -147.5t104.5 -141.5l41 -46l119 78q170 109 170 230t-69 175t-171 54t-164.5 -59.5t-62.5 -142.5zM229 320q0 -120 75 -186t201 -66q223 0 386 200l-363 396l-84 -56q-215 -141 -215 -288zM1268 0h-131l-179 195q-82 -98 -192.5 -162t-276.5 -64
t-266 95.5t-100 256t106.5 247.5t161.5 124l70 45l-31 35q-172 178 -172 326q0 137 91.5 231t246.5 94q156 0 249 -86t93 -233q0 -92 -63 -174.5t-154 -138.5l-111 -74l340 -367q57 87 152 283l92 -43q-39 -78 -80 -159t-94 -157l248 -264v-10z" />
    <glyph glyph-name="quotesingle" unicode="'" horiz-adv-x="421" 
d="M162 1393h98v-217l-16 -353h-66l-16 353v217z" />
    <glyph glyph-name="parenleft" unicode="(" horiz-adv-x="538" 
d="M238 509.5q0 -489.5 208 -915.5l-79 -40q-117 244 -158 394t-59.5 280t-18.5 344t61 437.5t175 456.5l79 -41q-208 -426 -208 -915.5z" />
    <glyph glyph-name="parenright" unicode=")" horiz-adv-x="538" 
d="M301 512.5q0 490.5 -209 912.5l80 41q114 -237 156.5 -390.5t61 -283.5t18.5 -345t-61 -435.5t-175 -457.5l-80 40q209 428 209 918.5z" />
    <glyph glyph-name="asterisk" unicode="*" horiz-adv-x="839" 
d="M457 1190l2 -2l198 129l41 -82l-200 -115v-4l200 -110l-43 -80l-196 129l-2 -2l6 -240h-86l6 240l-2 2l-197 -129l-43 80l201 110v4l-201 115l41 82l199 -129l2 2l-6 244h86z" />
    <glyph glyph-name="plus" unicode="+" 
d="M653 596h406v-88h-406v-442h-98v442h-405v88h405v442h98v-442z" />
    <glyph glyph-name="comma" unicode="," horiz-adv-x="452" 
d="M291 127v-12l-92 -445h-84v13l61 444h115z" />
    <glyph glyph-name="hyphen" unicode="-" horiz-adv-x="808" 
d="M160 512v88h489v-88h-489z" />
    <glyph glyph-name="period" unicode="." horiz-adv-x="471" 
d="M145 59q0 41 26 66t64.5 25t64.5 -25t26 -66t-26 -65.5t-64.5 -24.5t-64.5 24.5t-26 65.5z" />
    <glyph glyph-name="slash" unicode="/" horiz-adv-x="743" 
d="M84 0v10l481 1383h94v-11l-479 -1382h-96z" />
    <glyph glyph-name="zero" unicode="0" 
d="M100 886.5q0 536.5 504 536.5t504 -627.5t-184.5 -727t-319.5 -99.5t-230 51.5t-184.5 190.5t-89.5 675.5zM205 696.5q0 -137.5 18.5 -253t63.5 -198.5t121.5 -130t195.5 -47t196 47t122 130t63.5 198.5t18.5 253t-18.5 253t-63.5 198.5t-122 130t-196 47t-195.5 -47
t-121.5 -130t-63.5 -198.5t-18.5 -253z" />
    <glyph glyph-name="one" unicode="1" 
d="M272 1174v96l338 123h84v-1297h301v-96h-723v96h322v1186h-4l-307 -108h-11z" />
    <glyph glyph-name="two" unicode="2" 
d="M313 96h699v-96h-840v92l571 578q158 158 158 346q0 135 -87 222t-217 87t-214 -44t-150 -110l-59 74q127 127 232.5 152.5t192.5 25.5q179 0 294 -113.5t115 -293.5q0 -135 -54.5 -232.5t-136.5 -179.5l-504 -504v-4z" />
    <glyph glyph-name="three" unicode="3" 
d="M920 354q0 314 -351 314h-235v96h254q135 0 217 75.5t82 208.5t-86 205t-248 72t-326 -86l-37 86q169 98 373 98q205 0 317.5 -100t112.5 -283q0 -124 -62 -203.5t-157 -113.5v-4q117 -29 184.5 -125t67.5 -213q0 -206 -134.5 -309t-349.5 -103t-392 117l43 88
q170 -106 362 -106q242 0 303.5 110.5t61.5 175.5z" />
    <glyph glyph-name="four" unicode="4" 
d="M918 1008v-619h200v-96h-200v-293h-103v293h-725v86l455 1014h104l-442 -1004h608v619h103z" />
    <glyph glyph-name="five" unicode="5" 
d="M553 723q-141 0 -287 -23l-12 17l92 676h633v-97h-547l-67 -489q96 14 196 14q217 0 341 -100t124 -312t-138.5 -326t-344.5 -114t-391 94l34 93q166 -88 344 -88q274 0 332 127t58 225q0 303 -367 303z" />
    <glyph glyph-name="six" unicode="6" 
d="M969 425q0 163 -93.5 258t-267.5 95t-267 -95t-93 -258t93 -260t267 -97t267.5 97t93.5 260zM949.5 92.5q-125.5 -123.5 -343.5 -123.5t-341.5 123.5t-123.5 331.5t176 479l312 490h112v-13l-370 -573l2 -2q102 72 225 72q124 0 208.5 -33t176.5 -125t92 -297.5
t-125.5 -329z" />
    <glyph glyph-name="seven" unicode="7" 
d="M907 1296h-714v97h825v-84l-508 -1309h-104v12l501 1280v4z" />
    <glyph glyph-name="eight" unicode="8" 
d="M604 784q160 0 241 69t81 198t-80 201.5t-242 72.5t-241.5 -72.5t-79.5 -201.5t80.5 -198t240.5 -69zM1032 1051q0 -220 -201 -312v-4q117 -43 185.5 -137t68.5 -223q0 -281 -178 -343.5t-304 -62.5q-237 0 -358.5 112.5t-121.5 293.5q0 129 68.5 223t185.5 137v4
q-135 59 -168 152.5t-33 164.5t25.5 138.5t78 118.5t133.5 80.5t242.5 29.5t269 -105.5t107.5 -266.5zM605 68q196 0 285 87t89 222t-90 222t-284.5 87t-285 -87t-90.5 -222t90 -222t286 -87z" />
    <glyph glyph-name="nine" unicode="9" 
d="M238 968q0 -163 93 -258q93 -96 267 -96t267 96t93 258q0 163 -93 260t-267 97t-267 -97t-93 -260zM608 516q-227 0 -352 125t-125 330t127 330q127 124 345 123t340 -124t122 -332t-176 -478l-311 -490h-113v12l371 574l-2 2q-102 -72 -226 -72z" />
    <glyph glyph-name="colon" unicode=":" horiz-adv-x="499" 
d="M160 928q0 42 26 66t64 24t64 -25t26 -65t-26 -66q-26 -24 -64 -24t-65 24q-25 25 -25 66zM160 59q0 41 25 66q26 25 65 25q38 0 64 -25t26 -66t-26 -65t-64 -25q-38 1 -64 25t-26 65z" />
    <glyph glyph-name="semicolon" unicode=";" horiz-adv-x="532" 
d="M336 127v-12l-92 -445h-84v13l61 444h115zM186 928q0 42 26 66t64 24t65 -25q26 -25 26 -65t-26 -66q-26 -24 -65 -24q-38 0 -64 24t-26 66z" />
    <glyph glyph-name="less" unicode="&#x3c;" 
d="M1034 1004v-93l-794 -356v-6l794 -356v-93h-10l-897 414v76l897 414h10z" />
    <glyph glyph-name="equal" unicode="=" 
d="M150 377h909v-88h-909v88zM150 821h909v-88h-909v88z" />
    <glyph glyph-name="greater" unicode="&#x3e;" 
d="M174 100v93l795 356v6l-795 356v93h10l897 -414v-76l-897 -414h-10z" />
    <glyph glyph-name="question" unicode="?" horiz-adv-x="888" 
d="M285 59q0 41 25.5 66t64.5 25t64.5 -25t25.5 -66t-25.5 -65.5t-64.5 -24.5t-64.5 24.5t-25.5 65.5zM76 1292q158 131 322 131q190 0 290 -110t100 -279q0 -293 -360 -411l-12 -226h-80l-6 291q170 54 232.5 107t91 109.5t28.5 133.5q0 123 -68.5 205t-212.5 82t-274 -111
z" />
    <glyph glyph-name="at" unicode="@" horiz-adv-x="1839" 
d="M947 944q-136 0 -221 -137t-85 -326q0 -129 56.5 -197.5t166.5 -68.5q59 0 118.5 27.5t94.5 56.5l88 547q-29 33 -88 65.5t-130 32.5zM940 1036q132 0 246 -100h2l29 76h75l-106 -680q-10 -62 5 -88.5t36.5 -40t60.5 -13.5t92.5 21.5t135 119t81.5 382.5t-161 472
t-467 187q-172 0 -308.5 -70.5t-231.5 -187.5t-145.5 -267.5t-50.5 -310.5t45.5 -295t126 -231t191.5 -150.5t242 -54.5q191 0 358 95l39 -86q-189 -101 -397 -101q-304 0 -507.5 228t-203.5 598q0 182 57.5 349t165 295t264 204.5t346.5 76.5q353 0 548.5 -214t195.5 -536
q0 -323 -134 -469.5t-302 -146.5q-72 0 -113 37t-55 78h-2q-47 -35 -117 -62.5t-143 -27.5q-135 0 -219 86t-84 272q0 239 110 397t295 158z" />
    <glyph glyph-name="A" unicode="A" horiz-adv-x="1202" 
d="M600 1257l-283 -786h568l-283 786h-2zM1163 0h-108l-135 377h-637l-136 -377h-108l510 1393h104z" />
    <glyph glyph-name="B" unicode="B" horiz-adv-x="1224" 
d="M305 758h303q240 0 288 94t48 269t-336 175h-303v-538zM616 1393q313 0 374 -131.5t61 -214.5q0 -143 -60.5 -219.5t-144.5 -108.5v-4q113 -29 183.5 -114t70.5 -205t-68.5 -258t-378.5 -138h-450v1393h413zM305 96h336q246 0 299 101.5t53 216t-95 181.5t-253 67h-340
v-566z" />
    <glyph glyph-name="C" unicode="C" horiz-adv-x="1187" 
d="M283.5 1230q148.5 193 461.5 193q184 0 347 -92l-39 -86q-145 80 -308 80q-503 -1 -503 -629t503 -628q165 0 308 79l39 -86q-163 -92 -336 -92t-288.5 52.5t-224 192.5t-108.5 481.5t148.5 534.5z" />
    <glyph glyph-name="D" unicode="D" horiz-adv-x="1366" 
d="M516 96q341 0 475.5 140.5t134.5 459.5t-134 459.5t-476 140.5h-211v-1200h211zM203 1393h327q378 0 539.5 -174.5t161.5 -522.5t-162 -522t-539 -174h-327v1393z" />
    <glyph glyph-name="E" unicode="E" horiz-adv-x="1175" 
d="M1040 1393v-97h-735v-532h674v-96h-674v-572h742v-96h-844v1393h837z" />
    <glyph glyph-name="F" unicode="F" horiz-adv-x="1126" 
d="M1040 1393v-97h-735v-544h674v-97h-674v-655h-102v1393h837z" />
    <glyph glyph-name="G" unicode="G" horiz-adv-x="1310" 
d="M715 68q205 0 344 92v403l-297 19v77h399v-553q-193 -137 -446 -137q-289 0 -435.5 199t-146.5 524t151.5 528t438.5 203q239 0 426 -123l-47 -83q-171 108 -379 108q-239 0 -362 -171t-123 -458q0 -439 174 -533.5t303 -94.5z" />
    <glyph glyph-name="H" unicode="H" horiz-adv-x="1406" 
d="M1102 668h-797v-668h-102v1393h102v-629h797v629h102v-1393h-102v668z" />
    <glyph glyph-name="I" unicode="I" horiz-adv-x="505" 
d="M303 0h-100v1393h100v-1393z" />
    <glyph glyph-name="J" unicode="J" horiz-adv-x="927" 
d="M375 68q181 0 218.5 116.5t37.5 202.5v1006h102v-1012q0 -197 -99 -304.5t-259 -107.5q-100 0 -185.5 43t-138.5 94l55 76q114 -114 269 -114z" />
    <glyph glyph-name="K" unicode="K" horiz-adv-x="1138" 
d="M305 651v-651h-102v1393h102v-691h4l641 691h119v-13l-645 -696l684 -672v-12h-133l-666 651h-4z" />
    <glyph glyph-name="L" unicode="L" horiz-adv-x="1026" 
d="M305 1393v-1297h662v-96h-764v1393h102z" />
    <glyph glyph-name="M" unicode="M" horiz-adv-x="1652" 
d="M1450 1393v-1393h-102v1180h-5l-473 -826h-88l-473 826h-4v-1180h-102v1393h96l524 -912h6l525 912h96z" />
    <glyph glyph-name="N" unicode="N" horiz-adv-x="1413" 
d="M1110 188v1205h100v-1393h-98l-803 1206h-4v-1206h-102v1393h98l805 -1205h4z" />
    <glyph glyph-name="O" unicode="O" horiz-adv-x="1425" 
d="M1290 696.5q0 -157.5 -31.5 -291t-101.5 -230.5t-179.5 -151.5t-265 -54.5t-265 54.5t-179 151.5t-101.5 230.5t-32 291t32 290.5t101.5 230.5t179 151.5t265 54t265 -54t179.5 -151.5t101.5 -230.5t31.5 -290.5zM713 1325q-471 0 -471 -628.5t471 -628.5t471 628.5
t-471 628.5z" />
    <glyph glyph-name="P" unicode="P" horiz-adv-x="1163" 
d="M305 676h318q342 0 342 310t-342 310h-318v-620zM203 0v1393h432q211 0 323.5 -103.5t112.5 -304.5t-113.5 -303t-322.5 -102h-330v-580h-102z" />
    <glyph glyph-name="Q" unicode="Q" horiz-adv-x="1425" 
d="M713 1325q-471 0 -471 -628.5t471 -628.5t471 628.5t-471 628.5zM135 788q0 427 211 531t437 104t366.5 -195.5t140.5 -531.5q0 -420 -139 -543.5t-240 -154.5l355 -199l-49 -90l-447 262l-57 -2q-297 0 -437.5 196t-140.5 623z" />
    <glyph glyph-name="R" unicode="R" horiz-adv-x="1249" 
d="M664 1296h-359v-563h359q332 0 331 283q0 280 -331 280zM203 0v1393h473q205 0 314.5 -96.5t109.5 -276.5t-100.5 -272.5t-266.5 -108.5l455 -625v-14h-119l-457 637h-307v-637h-102z" />
    <glyph glyph-name="S" unicode="S" horiz-adv-x="1071" 
d="M850 340q0 121 -68.5 185.5t-212.5 119.5l-139 53q-139 51 -216 138.5t-77 205.5q0 164 112.5 272.5t315.5 108.5t367 -116l-47 -86q-152 104 -316 104t-244.5 -79.5t-80.5 -183.5t53 -163t176 -106l135 -52q174 -66 261 -154.5t87 -244.5t-118.5 -264.5t-312.5 -108.5
t-288 63.5t-131 92.5l54 86q66 -57 154 -100t222 -43t224 75.5t90 196.5z" />
    <glyph glyph-name="T" unicode="T" horiz-adv-x="1064" 
d="M1001 1393v-97h-417v-1296h-103v1296h-418v97h938z" />
    <glyph glyph-name="U" unicode="U" horiz-adv-x="1392" 
d="M295 1393v-899q0 -203 105.5 -314.5t296 -111.5t296 111.5t105.5 314.5v899h102v-910q0 -236 -129 -375t-374.5 -139t-374.5 139.5t-129 374.5v910h102z" />
    <glyph glyph-name="V" unicode="V" horiz-adv-x="1200" 
d="M43 1393h107l448 -1239h4l449 1239h106v-13l-504 -1380h-106l-504 1380v13z" />
    <glyph glyph-name="W" unicode="W" horiz-adv-x="1937" 
d="M57 1393h105l368 -1231h5l378 1231h111l379 -1231h4l369 1231h104v-13l-420 -1380h-108l-381 1243h-4l-381 -1243h-109l-420 1380v13z" />
    <glyph glyph-name="X" unicode="X" horiz-adv-x="1150" 
d="M1085 1393v-13l-442 -682l442 -686v-12h-112l-395 616h-5l-395 -616h-112v12l442 686l-442 682v13h114l393 -615h5l393 615h114z" />
    <glyph glyph-name="Y" unicode="Y" horiz-adv-x="1093" 
d="M1057 1393v-13l-459 -786v-594h-102v594l-459 786v13h113l395 -686h4l395 686h113z" />
    <glyph glyph-name="Z" unicode="Z" horiz-adv-x="1034" 
d="M936 1393v-86l-727 -1207v-4h727v-96h-852v86l727 1206v4h-694v97h819z" />
    <glyph glyph-name="bracketleft" unicode="[" horiz-adv-x="608" 
d="M526 1434v-78l-250 -19v-1650l250 -19v-74h-352v1840h352z" />
    <glyph glyph-name="backslash" unicode="\" horiz-adv-x="743" 
d="M84 1393h94l481 -1373v-20h-96l-479 1372v21z" />
    <glyph glyph-name="bracketright" unicode="]" horiz-adv-x="608" 
d="M434 1434v-1840h-352v74l250 19v1650l-250 19v78h352z" />
    <glyph glyph-name="asciicircum" unicode="^" horiz-adv-x="1040" 
d="M909 762h-88l-280 557h-2l-281 -557h-88v10l334 662h71l334 -662v-10z" />
    <glyph glyph-name="underscore" unicode="_" horiz-adv-x="903" 
d="M127 -129v88h649v-88h-649z" />
    <glyph glyph-name="grave" unicode="`" 
d="M500 1425h110l99 -225v-10h-88l-121 225v10z" />
    <glyph glyph-name="a" unicode="a" horiz-adv-x="1019" 
d="M424 61q170 0 317 113v313h-153q-306 0 -346.5 -81.5t-40.5 -137.5q0 -98 61.5 -152.5t161.5 -54.5zM877 -20q-106 0 -125 106h-4q-53 -45 -138.5 -81t-174.5 -36q-158 0 -247.5 81t-89.5 228q0 295 475 295h168v60q0 164 -74.5 228.5t-210.5 64.5t-259 -95l-45 74
q131 113 321 113q262 0 314.5 -141.5t52.5 -243.5v-494q0 -37 12 -54t53 -17h56v-76q-48 -12 -84 -12z" />
    <glyph glyph-name="b" unicode="b" horiz-adv-x="1128" 
d="M610 -31q-195 0 -344 121h-4l-12 -90h-78v1434h98v-533h4q72 57 149 87t187 30q205 0 302.5 -144.5t97.5 -379.5q0 -364 -144.5 -444.5t-255.5 -80.5zM907 610.5q0 315.5 -309 315.5q-96 0 -184 -38t-144 -100v-589q55 -61 143.5 -99.5t180.5 -38.5t151.5 34t110.5 117
t51 398.5z" />
    <glyph glyph-name="c" unicode="c" horiz-adv-x="962" 
d="M117 493.5q0 235.5 117.5 380t330.5 144.5q173 0 301 -74l-35 -82q-122 64 -239 64t-182.5 -35t-107.5 -94.5t-62.5 -138t-20.5 -214.5t87 -259.5t245 -123.5t280 64l35 -82q-130 -74 -301 -74q-213 0 -330.5 144.5t-117.5 380z" />
    <glyph glyph-name="d" unicode="d" horiz-adv-x="1130" 
d="M121 494q0 364 144.5 444t230.5 80q136 0 211.5 -29.5t148.5 -87.5h4v533h98v-1434h-77l-13 90h-4q-147 -121 -349 -121t-298 145.5t-96 379.5zM536 926q-92 0 -151 -34t-95 -92.5t-51.5 -137t-15.5 -222.5t72.5 -261.5t236.5 -117.5q96 0 184.5 38t143.5 100v589
q-55 61 -143.5 99.5t-180.5 38.5z" />
    <glyph glyph-name="e" unicode="e" horiz-adv-x="1079" 
d="M563 926q-143 0 -235 -95.5t-109 -267.5h649q2 16 2 19v34q0 216 -114.5 263t-192.5 47zM973 614q0 -76 -15 -139h-741q7 -293 141 -353.5t231 -60.5t165.5 29t126.5 70l45 -78q-61 -45 -141 -79t-202 -34t-210 41t-145.5 112t-84 167t-26.5 266.5t123 316.5t321 146
q199 0 305.5 -118t106.5 -286z" />
    <glyph glyph-name="f" unicode="f" horiz-adv-x="663" 
d="M233 0v899h-176v72l176 16v168q0 150 69 219.5t210 69.5q66 0 119 -12v-93q-53 13 -133 13t-123 -41t-43 -146v-178h291v-88h-291v-899h-99z" />
    <glyph glyph-name="g" unicode="g" horiz-adv-x="1130" 
d="M520 1018q197 0 344 -121h4l11 90h79v-991q0 -203 -109.5 -317.5t-289.5 -114.5t-338 92l37 84q135 -80 295 -80q214 0 260.5 118t46.5 197v113h-4q-137 -117 -340 -117t-300 145.5t-97 377.5q0 364 146.5 444t254.5 80zM536 926q-92 0 -151 -34t-96 -92.5t-52.5 -137
t-15.5 -223t74 -261.5t237 -117q94 0 183.5 38t144.5 100v589q-55 61 -143.5 99.5t-180.5 38.5z" />
    <glyph glyph-name="h" unicode="h" horiz-adv-x="1136" 
d="M616 1018q176 0 266.5 -98.5t90.5 -290.5v-629h-99v612q0 162 -66.5 238t-199.5 76q-179 0 -338 -121v-805h-98v1434h98v-531h4q166 115 342 115z" />
    <glyph glyph-name="i" unicode="i" horiz-adv-x="442" 
d="M141 1282q0 35 22.5 58.5t56.5 23.5t56.5 -23.5t22.5 -58.5t-22.5 -57.5t-56.5 -22.5t-56.5 22.5t-22.5 57.5zM172 0v987h98v-987h-98z" />
    <glyph glyph-name="j" unicode="j" horiz-adv-x="442" 
d="M141 1282q0 35 22.5 58.5t56.5 23.5t56.5 -23.5t22.5 -58.5t-22.5 -57.5t-56.5 -22.5t-56.5 22.5t-22.5 57.5zM43 -436q-61 0 -115 16v88q51 -12 113 -12q131 0 131 182v1149h98v-1114q0 -170 -55 -239.5t-172 -69.5z" />
    <glyph glyph-name="k" unicode="k" horiz-adv-x="911" 
d="M270 461v-461h-98v1434h98v-918h4l465 471h121v-10l-485 -483l502 -484v-10h-129l-474 461h-4z" />
    <glyph glyph-name="l" unicode="l" horiz-adv-x="475" 
d="M274 1434v-1270q0 -47 14.5 -71.5t61.5 -24.5h72v-76q-37 -12 -86 -12q-88 0 -124 49t-36 151v1254h98z" />
    <glyph glyph-name="m" unicode="m" horiz-adv-x="1773" 
d="M270 0h-98v987h78l10 -88h4q95 74 187 96.5t151 22.5q208 0 287 -131h4q66 55 163 93t208 38q180 0 263 -98.5t83 -290.5v-629h-99v612q0 160 -58 237t-198 77q-82 0 -175 -32t-158 -91q18 -75 18 -174v-629h-98v612q0 161 -49.5 237.5t-213.5 76.5t-309 -121v-805z" />
    <glyph glyph-name="n" unicode="n" horiz-adv-x="1136" 
d="M608 926q-179 0 -338 -121v-805h-98v987h80l10 -90h4q97 76 193 98.5t157 22.5q176 0 266.5 -98.5t90.5 -290.5v-629h-99v612q0 162 -65.5 238t-200.5 76z" />
    <glyph glyph-name="o" unicode="o" horiz-adv-x="1150" 
d="M1034 493q0 -101 -22.5 -195.5t-75.5 -167.5t-141 -117t-275.5 -44t-295 148t-107.5 377q0 360 163.5 442t295 82t219.5 -44t141 -117t75.5 -168t22.5 -196zM219 493.5q0 -188.5 80.5 -310.5t276.5 -122q195 0 275.5 122t80.5 364t-125 310.5t-233 68.5t-176 -38
t-123.5 -122t-55.5 -272.5z" />
    <glyph glyph-name="p" unicode="p" horiz-adv-x="1130" 
d="M909 610.5q0 315.5 -309 315.5q-98 0 -186 -38t-144 -100v-589q55 -61 143.5 -99.5t181.5 -38.5t152.5 34t110.5 117t51 398.5zM1012 494q0 -364 -144.5 -444.5t-261.5 -80.5t-194.5 35t-137.5 82h-4v-492h-98v1393h80l10 -90h4q147 121 349 121t299.5 -144.5
t97.5 -379.5z" />
    <glyph glyph-name="q" unicode="q" horiz-adv-x="1130" 
d="M536 926q-94 0 -153 -34t-95 -92.5t-51.5 -137t-15.5 -222.5t72.5 -261.5t236.5 -117.5q98 0 186.5 38t143.5 100v589q-55 61 -142.5 99.5t-181.5 38.5zM518 1018q199 0 346 -121h4l11 90h79v-1393h-98v492h-4q-59 -47 -137 -82t-195 -35q-212 0 -308.5 145.5
t-96.5 379.5q0 364 144.5 444t254.5 80z" />
    <glyph glyph-name="r" unicode="r" horiz-adv-x="671" 
d="M520 1018q55 0 109 -14l-17 -93q-49 14 -96 15q-94 0 -151.5 -48.5t-94.5 -109.5v-768h-98v987h78l12 -100h4q92 131 254 131z" />
    <glyph glyph-name="s" unicode="s" horiz-adv-x="890" 
d="M684 238q0 76 -44 120.5t-159 79.5l-123 37q-113 35 -174 94t-61 173t88 195t247 81t308 -70l-37 -88q-121 66 -253 66t-191.5 -53t-59.5 -123t34 -112t126 -69l123 -37q141 -41 209.5 -103t68.5 -175q0 -194 -134 -239.5t-234 -45.5q-165 0 -320 94l45 82
q109 -84 287 -84q123 0 188.5 50.5t65.5 126.5z" />
    <glyph glyph-name="t" unicode="t" horiz-adv-x="628" 
d="M410 -31q-84 0 -133.5 58.5t-49.5 162.5v709h-176v72l176 16v230h99v-230h239v-88h-239v-713q0 -125 108 -125q70 0 133 23v-90q-73 -25 -157 -25z" />
    <glyph glyph-name="u" unicode="u" horiz-adv-x="1120" 
d="M164 358v629h98v-612q0 -162 61.5 -238t196.5 -76q174 0 330 121v805h98v-987h-80l-10 90h-4q-155 -121 -340 -121q-350 0 -350 389z" />
    <glyph glyph-name="v" unicode="v" horiz-adv-x="962" 
d="M55 987h101l323 -862h4l324 862h100v-12l-375 -975h-102l-375 975v12z" />
    <glyph glyph-name="w" unicode="w" horiz-adv-x="1642" 
d="M59 987h99l305 -850h4l303 850h102l304 -850h4l305 850h98v-12l-354 -975h-103l-303 864h-4l-303 -864h-102l-355 975v12z" />
    <glyph glyph-name="x" unicode="x" horiz-adv-x="933" 
d="M74 0v12l327 482l-327 481v12h108l283 -424h4l283 424h108v-12l-328 -481l328 -482v-12h-108l-283 420h-4l-283 -420h-108z" />
    <glyph glyph-name="y" unicode="y" horiz-adv-x="970" 
d="M197 -344q65 0 114 54t78 130l62 164l-400 971v12h105l340 -852h6l311 852h100v-12l-421 -1143q-49 -129 -119 -198.5t-180 -69.5q-61 0 -127 18v90q66 -16 131 -16z" />
    <glyph glyph-name="z" unicode="z" horiz-adv-x="870" 
d="M774 987v-69l-559 -826v-4h559v-88h-688v66l561 829v4h-536v88h663z" />
    <glyph glyph-name="braceleft" unicode="{" horiz-adv-x="620" 
d="M338 295v-430q0 -102 41 -147.5t153 -45.5v-78h-10q-164 0 -225 63t-61 208v448q0 72 -27 113t-113 41v94q86 0 113 41t27 113v448q0 145 61 208t225 63h10v-78q-113 0 -153.5 -45t-40.5 -148v-430q0 -92 -26.5 -142t-82.5 -75v-4q55 -25 82 -75t27 -142z" />
    <glyph glyph-name="bar" unicode="|" horiz-adv-x="446" 
d="M272 -406h-98v1840h98v-1840z" />
    <glyph glyph-name="braceright" unicode="}" horiz-adv-x="620" 
d="M283 733v430q0 102 -41 147.5t-154 45.5v78h10q166 0 226.5 -63.5t60.5 -207.5v-448q0 -72 26.5 -113t112.5 -41v-94q-86 0 -112.5 -41t-26.5 -113v-448q0 -144 -60.5 -207.5t-226.5 -63.5h-10v78q113 0 154 45t41 148v430q0 92 26.5 142t81.5 75v4q-55 25 -81.5 75
t-26.5 142z" />
    <glyph glyph-name="asciitilde" unicode="~" horiz-adv-x="1011" 
d="M156 532q98 117 196 117q54 0 90.5 -14t72.5 -31.5t67.5 -32t69.5 -14.5t71 19.5t84 74.5l47 -65q-98 -117 -196 -117q-54 0 -91 14.5t-103 45t-105 30.5t-72 -19.5t-84 -72.5z" />
    <glyph glyph-name="uni00A0" unicode="&#xa0;" horiz-adv-x="542" 
 />
    <glyph glyph-name="exclamdown" unicode="&#xa1;" horiz-adv-x="454" 
d="M319 928q1 -41 -25 -66q-26 -24 -65 -24t-65 24t-25 66q0 42 26 66q27 24 65 24t64 -24t25 -66zM279 -405h-103v391l19 604h65l19 -604v-391z" />
    <glyph glyph-name="cent" unicode="&#xa2;" 
d="M338 448q0 -125 73 -244.5t224 -140.5v859q-221 -28 -259 -188.5t-38 -285.5zM733 -197h-98v170q-192 16 -295.5 159.5t-103.5 361.5t104 361t295 159v170h98v-168q142 -9 252 -72l-35 -82q-106 54 -217 62v-861q120 9 217 62l35 -82q-110 -63 -252 -72v-168z" />
    <glyph glyph-name="sterling" unicode="&#xa3;" 
d="M470.5 191.5q-43.5 -69.5 -91.5 -95.5v-4h631v-92h-795v78q86 35 139.5 113.5t53.5 171.5t-27 272h-186v86h170q-39 205 -39 320q0 197 105 289.5t257 92.5t301 -98l-47 -82q-126 82 -258 82q-172 0 -215 -95t-43 -192t41 -317h407v-86h-389q29 -169 29 -272
q0 -102 -43.5 -171.5z" />
    <glyph glyph-name="currency" unicode="&#xa4;" 
d="M336 553q0 -51 12 -102.5t42 -92.5t80 -66.5t126 -25.5t126 25.5t79.5 66.5t42 92.5t12.5 102.5t-12.5 102.5t-42 92t-79.5 66.5t-126 26t-126 -26t-80 -66.5t-42 -92t-12 -102.5zM958 552q0 -132 -61 -228l172 -174l-65 -68l-168 170q-91 -78 -236 -78t-231 68
l-160 -160l-66 68l160 161q-70 102 -70 241t70 243l-160 161l64 68l160 -162q91 70 234 70q142 0 235 -80l170 172l63 -68l-172 -176q61 -96 61 -228z" />
    <glyph glyph-name="yen" unicode="&#xa5;" 
d="M1087 1393v-13l-378 -632h305v-86h-359v-246h359v-86h-359v-330h-102v330h-358v86h358v246h-358v86h305l-379 632v13h112l369 -631h4l369 631h112z" />
    <glyph glyph-name="brokenbar" unicode="&#xa6;" horiz-adv-x="475" 
d="M188 754v680h99v-680h-99zM287 274v-680h-99v680h99z" />
    <glyph glyph-name="section" unicode="&#xa7;" horiz-adv-x="1087" 
d="M258 552q0 -75 50 -119t171 -85l215 -74q61 35 106.5 94.5t45.5 123.5t-16.5 99.5t-63 72t-193.5 84.5l-167 55q-74 -39 -111 -107.5t-37 -143.5zM174 -150q159 -118 333 -118q168 0 253.5 59t85.5 159q0 101 -65.5 156.5t-207.5 102.5l-135 45q-158 49 -222 120.5
t-64 161.5t40.5 170t122.5 134v6q-163 98 -163 246t110 239.5t308 91.5t358 -98l-45 -88q-145 88 -307 88t-240 -60.5t-78 -162.5q0 -72 50 -123t171 -92l133 -43q184 -64 262 -134.5t78 -195.5q0 -88 -46 -159.5t-124 -118.5v-7q170 -101 170 -256q0 -156 -116.5 -248
t-294.5 -92q-230 0 -418 134z" />
    <glyph glyph-name="dieresis" unicode="&#xa8;" 
d="M705 1282q0 35 22.5 58.5t56.5 23.5t56 -23.5t22 -58.5t-22.5 -57.5t-56.5 -22.5t-56 22.5t-22 57.5zM340 1282q0 35 22.5 58.5t56.5 23.5t56.5 -23.5t22.5 -58.5t-22.5 -57.5t-56.5 -22.5t-56.5 22.5t-22.5 57.5z" />
    <glyph glyph-name="copyright" unicode="&#xa9;" horiz-adv-x="1712" 
d="M866 1004q-137 0 -199.5 -83t-62.5 -224.5t62.5 -224.5t182.5 -83t200 35l30 -78q-109 -49 -213 -49q-180 0 -270 109.5t-90 290t90 290t270 109.5q104 0 213 -49l-30 -78q-82 35 -183 35zM856 59q277 0 454 178.5t177 458.5q0 279 -176.5 458t-454.5 179t-454.5 -178.5
t-176.5 -458.5q0 -279 177 -458t454 -179zM1583 696.5q0 -153.5 -55 -287t-153.5 -231.5t-231.5 -153.5t-287 -55.5t-287 55.5t-231 153.5t-153.5 231.5t-55.5 287t55.5 286.5t153.5 231.5t231 153.5t287 55t287 -55t231.5 -153.5t153.5 -231.5t55 -286.5z" />
    <glyph glyph-name="ordfeminine" unicode="&#xaa;" horiz-adv-x="757" 
d="M129 467v88h506v-88h-506zM121 895q0 190 307 190h109v35q0 85 -46 117.5t-131 32.5t-157 -56l-47 70q92 74 228 74t190.5 -72t54.5 -194v-379h-74l-10 57q-96 -70 -226 -70t-164 71t-34 124zM217 897q0 -109 147 -109q75 0 173 64v152h-88q-135 0 -183.5 -27t-48.5 -80z
" />
    <glyph glyph-name="guillemotleft" unicode="&#xab;" horiz-adv-x="946" 
d="M98 555l305 418l70 -51l-270 -369l266 -369l-66 -51l-305 418v4zM453 555l305 418l69 -51l-270 -369l266 -369l-65 -51l-305 418v4z" />
    <glyph glyph-name="logicalnot" unicode="&#xac;" 
d="M963 508h-813v88h911v-360h-98v272z" />
    <glyph glyph-name="uni00AD" unicode="&#xad;" horiz-adv-x="808" 
d="M160 512v88h489v-88h-489z" />
    <glyph glyph-name="registered" unicode="&#xae;" horiz-adv-x="1163" 
d="M115 1149q0 100 35.5 185t98 148.5t148.5 99.5t184.5 36t184.5 -36t148.5 -99.5t98.5 -148.5t36 -185t-36 -186t-98.5 -148.5t-148.5 -98.5t-184.5 -36t-184.5 36t-148.5 98.5t-98 148.5t-35.5 186zM569 1186q53 0 73 13t20 48t-19.5 48.5t-73.5 13.5h-75v-123h75z
M592 1378q149 0 149 -131q0 -102 -100 -125l133 -184v-6h-88l-125 184h-67v-184h-80v446h178zM303.5 872q108.5 -114 278.5 -114q169 0 278 114.5t109 276.5t-108.5 276.5t-278.5 114.5q-169 0 -278 -114t-109 -277t108.5 -277z" />
    <glyph glyph-name="macron" unicode="&#xaf;" 
d="M356 1221v88h490v-88h-490z" />
    <glyph glyph-name="degree" unicode="&#xb0;" horiz-adv-x="831" 
d="M119 1132.5q0 63.5 21.5 117t61.5 92t94 60t119.5 21.5t120 -21.5t94.5 -60t61.5 -92t21.5 -117t-21.5 -116.5t-61.5 -92t-94.5 -60.5t-120 -21.5t-119.5 21.5t-94 60.5t-61.5 92t-21.5 116.5zM217 1132.5q0 -92.5 55.5 -147.5t143.5 -55t143 55t55 147.5t-55 147.5
t-143 55t-143.5 -55t-55.5 -147.5z" />
    <glyph glyph-name="plusminus" unicode="&#xb1;" 
d="M653 860h406v-88h-406v-442h-98v442h-405v88h405v443h98v-443zM1059 88v-88h-909v88h909z" />
    <glyph glyph-name="uni00B2" unicode="&#xb2;" horiz-adv-x="595" 
d="M274 1655q112 1 172 -59t60 -142t-30 -129t-75 -92l-194 -180v-2h311v-76h-446v65l237 220q43 40 75 82t32 100t-37 95q-37 38 -110 38t-152 -74l-47 62q92 92 204 92z" />
    <glyph glyph-name="uni00B3" unicode="&#xb3;" horiz-adv-x="612" 
d="M438 1159q0 115 -176 115h-102v76h106q86 0 123 32t37 76q0 117 -145 117q-96 0 -168 -39l-29 72q79 45 193 46q115 1 177 -47q62 -49 62 -121t-33 -112t-77 -57v-2q124 -42 122 -160q0 -92 -70 -144q-70 -53 -158 -53q-140 -1 -234 50l26 73q89 -41 182 -43
q164 0 164 121z" />
    <glyph glyph-name="acute" unicode="&#xb4;" 
d="M492 1190v10l98 225h110v-10l-120 -225h-88z" />
    <glyph glyph-name="mu" unicode="&#xb5;" horiz-adv-x="1124" 
d="M514 -31q-172 0 -246 105v-480h-98v1393h98v-612q0 -162 61.5 -238t196.5 -76q174 0 330 121v805h98v-987h-80l-10 90h-4q-174 -121 -346 -121z" />
    <glyph glyph-name="paragraph" unicode="&#xb6;" horiz-adv-x="1013" 
d="M307 952q-101 0 -168 56.5t-67 160.5q0 165 94 194.5t141 29.5h641v-93h-205v-1706h-98v1706h-239v-1706h-99v1358z" />
    <glyph glyph-name="periodcentered" unicode="&#xb7;" horiz-adv-x="503" 
d="M162 592q0 42 26 66t64 24t64 -25t26 -65t-26 -66q-26 -24 -64 -24t-65 24q-25 25 -25 66z" />
    <glyph glyph-name="cedilla" unicode="&#xb8;" 
d="M596 -350q102 0 102 98q0 47 -35.5 62.5t-105.5 15.5l-8 10l45 178h92l-35 -116q59 -6 104.5 -41t45.5 -119t-59.5 -129t-152.5 -45t-157 41l29 82q58 -37 135 -37z" />
    <glyph glyph-name="uni00B9" unicode="&#xb9;" horiz-adv-x="448" 
d="M51 1448v80l225 110h70v-663h-86v567h-2l-197 -94h-10z" />
    <glyph glyph-name="ordmasculine" unicode="&#xba;" horiz-adv-x="776" 
d="M88 1028.5q0 145.5 75 237.5t223 92t224 -91.5t76 -277.5t-109.5 -238.5t-189.5 -52.5t-136 27t-109.5 92.5t-53.5 211zM137 467v88h506v-88h-506zM184 1028q0 -108 49.5 -175t154.5 -67t153.5 70t48.5 172q0 171 -75 206.5t-128 35.5t-92 -18.5t-75 -67t-36 -156.5z" />
    <glyph glyph-name="guillemotright" unicode="&#xbb;" horiz-adv-x="946" 
d="M494 551l-306 -418l-65 51l266 369l-270 369l69 51l306 -418v-4zM848 551l-305 -418l-66 51l266 369l-270 369l70 51l305 -418v-4z" />
    <glyph glyph-name="onequarter" unicode="&#xbc;" horiz-adv-x="1310" 
d="M172 0v10l809 1383h98v-11l-809 -1382h-98zM86 1202v80l225 111h70v-664h-86v567h-2l-197 -94h-10zM1120 502v-279h105v-76h-105v-147h-86v147h-348v60l184 457h91l-175 -439v-2h248v279h86z" />
    <glyph glyph-name="onehalf" unicode="&#xbd;" horiz-adv-x="1351" 
d="M172 0v10l809 1383h98v-11l-809 -1382h-98zM86 1202v80l225 111h70v-664h-86v567h-2l-197 -94h-10zM1004 680q113 0 172 -59t59 -141t-30 -130q-30 -47 -75 -92l-194 -180v-2h311v-76h-446v66l237 219q43 39 75 82t32 100t-37 95t-111 38t-151 -74l-47 62q92 92 205 92z
" />
    <glyph glyph-name="threequarters" unicode="&#xbe;" horiz-adv-x="1447" 
d="M309 0v10l809 1383h99v-11l-809 -1382h-99zM1257 502v-279h105v-76h-105v-147h-86v147h-348v60l185 457h90l-174 -439v-2h247v279h86zM475 907q0 115 -176 115h-102v76h106q86 0 123 32t37 76q0 117 -146 117q-96 0 -167 -39l-29 72q84 47 195 47q112 0 174 -48
q62 -49 62 -121t-32 -112q-33 -40 -78 -57v-2q123 -42 123 -160q1 -92 -69 -144t-160 -52q-141 0 -234 49l27 73q89 -41 182 -43q164 0 164 121z" />
    <glyph glyph-name="questiondown" unicode="&#xbf;" horiz-adv-x="872" 
d="M596 928q0 -41 -26 -66q-26 -24 -64 -24t-65 24q-26 24 -25 66q0 42 26 66t64 24t64 -24t26 -66zM805 -305q-157 -131 -321 -131q-102 0 -175 31q-217 93 -217 362q0 88 35 159q65 133 207 199q63 31 119 50l12 225h80l6 -291q-169 -54 -232 -107t-92 -109t-28 -134
q1 -123 69 -205t210 -82t276 111z" />
    <glyph glyph-name="Agrave" unicode="&#xc0;" horiz-adv-x="1202" 
d="M600 1257l-283 -786h568l-283 786h-2zM1163 0h-108l-135 377h-637l-136 -377h-108l510 1393h104zM430 1759h115l98 -225v-10h-92l-121 225v10z" />
    <glyph glyph-name="Aacute" unicode="&#xc1;" horiz-adv-x="1202" 
d="M600 1257l-283 -786h568l-283 786h-2zM1163 0h-108l-135 377h-637l-136 -377h-108l510 1393h104zM557 1524v10l98 225h115v-10l-121 -225h-92z" />
    <glyph glyph-name="Acircumflex" unicode="&#xc2;" horiz-adv-x="1202" 
d="M600 1257l-283 -786h568l-283 786h-2zM1163 0h-108l-135 377h-637l-136 -377h-108l510 1393h104zM850 1524h-107l-139 149l-139 -149h-107v10l209 225h74l209 -225v-10z" />
    <glyph glyph-name="Atilde" unicode="&#xc3;" horiz-adv-x="1202" 
d="M600 1257l-283 -786h568l-283 786h-2zM1163 0h-108l-135 377h-637l-136 -377h-108l510 1393h104zM494 1638q-54 0 -105 -71l-47 59q67 102 160 100q44 0 114 -40q69 -39 97 -39q55 0 106 71l47 -59q-67 -102 -159 -100q-45 0 -93 27q-46 28 -70 40t-50 12z" />
    <glyph glyph-name="Adieresis" unicode="&#xc4;" horiz-adv-x="1202" 
d="M600 1257l-283 -786h568l-283 786h-2zM1163 0h-108l-135 377h-637l-136 -377h-108l510 1393h104zM707 1640q0 35 22 59q23 23 57 23t56 -24t22 -58q0 -36 -22 -58t-57 -22q-34 0 -56 23q-22 22 -22 57zM342 1640q0 35 23 59q23 23 57 23t56 -24t22 -58q0 -36 -23 -58
t-57 -22t-56 23q-22 22 -22 57z" />
    <glyph glyph-name="Aring" unicode="&#xc5;" horiz-adv-x="1202" 
d="M508 1485q0 -43 25.5 -66.5t68.5 -23.5t68.5 23.5t25.5 66.5t-25.5 66.5t-68.5 23.5t-68.5 -23.5t-25.5 -66.5zM600 1257l-283 -786h568l-283 786h-2zM434 1468q0 91 47 135t121 44t121 -44t47 -135.5t-96 -132.5l489 -1335h-108l-135 377h-637l-136 -377h-108l489 1335
q-94 42 -94 133z" />
    <glyph glyph-name="AE" unicode="&#xc6;" horiz-adv-x="1773" 
d="M801 500v770h-4l-428 -770h432zM1645 0h-844v406h-486l-225 -406h-113v10l785 1383h876v-97h-735v-532h674v-96h-674v-572h742v-96z" />
    <glyph glyph-name="Ccedilla" unicode="&#xc7;" horiz-adv-x="1187" 
d="M670 -350q102 0 102 98q0 46 -36 62t-105 16l-8 10l34 137q-247 26 -385 203q-137 178 -137 520q0 524 333 675q116 52 289 52t335 -92l-39 -86q-145 80 -294 80q-521 0 -517 -629q0 -628 503 -628q165 0 308 79l39 -86q-159 -90 -346 -92l-21 -71q59 -6 104 -41t45 -119
t-59 -129t-154 -45t-155 41l29 82q58 -37 135 -37z" />
    <glyph glyph-name="Egrave" unicode="&#xc8;" horiz-adv-x="1175" 
d="M1040 1393v-97h-735v-532h674v-96h-674v-572h742v-96h-844v1393h837zM473 1759h115l98 -225v-10h-92l-121 225v10z" />
    <glyph glyph-name="Eacute" unicode="&#xc9;" horiz-adv-x="1175" 
d="M1040 1393v-97h-735v-532h674v-96h-674v-572h742v-96h-844v1393h837zM580 1524v10l98 225h115v-10l-121 -225h-92z" />
    <glyph glyph-name="Ecircumflex" unicode="&#xca;" horiz-adv-x="1175" 
d="M1040 1393v-97h-735v-532h674v-96h-674v-572h742v-96h-844v1393h837zM877 1524h-107l-139 149l-139 -149h-107v10l209 225h74l209 -225v-10z" />
    <glyph glyph-name="Edieresis" unicode="&#xcb;" horiz-adv-x="1175" 
d="M1040 1393v-97h-735v-532h674v-96h-674v-572h742v-96h-844v1393h837zM733 1640q0 35 23 59q22 23 56 23t56 -24t23 -58q0 -36 -23 -58q-22 -22 -56 -22t-56 23q-22 22 -23 57zM369 1640q0 35 22 59q23 23 57 23t56 -24t22 -58q0 -36 -22 -58t-56 -22t-57 23
q-22 22 -22 57z" />
    <glyph glyph-name="Igrave" unicode="&#xcc;" horiz-adv-x="505" 
d="M303 0h-100v1393h100v-1393zM82 1759h115l98 -225v-10h-92l-121 225v10z" />
    <glyph glyph-name="Iacute" unicode="&#xcd;" horiz-adv-x="505" 
d="M303 0h-100v1393h100v-1393zM213 1524v10l98 225h115v-10l-121 -225h-92z" />
    <glyph glyph-name="Icircumflex" unicode="&#xce;" horiz-adv-x="505" 
d="M303 0h-100v1393h100v-1393zM500 1524h-107l-139 149l-139 -149h-107v10l209 225h74l209 -225v-10z" />
    <glyph glyph-name="Idieresis" unicode="&#xcf;" horiz-adv-x="505" 
d="M303 0h-100v1393h100v-1393zM356 1640q0 35 23 59q23 23 57 23t56 -24t22 -58q0 -36 -22 -58t-57 -22t-57 23q-22 22 -22 57zM-8 1640q0 35 22 59q23 23 57 23q35 0 57 -24t22 -58q0 -36 -23 -58t-57 -22t-56 23q-22 22 -22 57z" />
    <glyph glyph-name="Eth" unicode="&#xd0;" horiz-adv-x="1368" 
d="M518 96q341 0 475.5 140.5t134.5 459.5t-134 459.5t-476 140.5h-211v-561h365v-96h-365v-543h211zM205 639h-109v96h109v658h327q378 0 539.5 -174.5t161.5 -522.5t-162 -522t-539 -174h-327v639z" />
    <glyph glyph-name="Ntilde" unicode="&#xd1;" horiz-adv-x="1413" 
d="M1110 188v1205h100v-1393h-98l-803 1206h-4v-1206h-102v1393h98l805 -1205h4zM822 1647q52 0 104 71l47 -59q-67 -102 -160 -100q-43 0 -91 27q-48 28 -72 40t-50 12q-53 0 -104 -71l-47 59q67 102 159 100q45 0 93 -27q47 -27 71 -39t50 -13z" />
    <glyph glyph-name="Ograve" unicode="&#xd2;" horiz-adv-x="1425" 
d="M268 175q-133 184 -133 519t133 524q148 205 446 205t443 -205q133 -184 133 -519t-133 -524q-147 -204 -445 -205q-297 -1 -444 205zM713 1325q-471 0 -471 -629q0 -448 244 -579q91 -49 227 -49q471 0 471 628t-471 629zM565 1759h115l98 -225v-10h-92l-121 225v10z
" />
    <glyph glyph-name="Oacute" unicode="&#xd3;" horiz-adv-x="1425" 
d="M268 175q-133 184 -133 519t133 524q148 205 446 205t443 -205q133 -184 133 -519t-133 -524q-147 -204 -445 -205q-297 -1 -444 205zM713 1325q-471 0 -471 -629q0 -448 244 -579q91 -49 227 -49q471 0 471 628t-471 629zM657 1524v10l99 225h114v-10l-120 -225h-93z
" />
    <glyph glyph-name="Ocircumflex" unicode="&#xd4;" horiz-adv-x="1425" 
d="M268 175q-133 184 -133 519t133 524q148 205 446 205t443 -205q133 -184 133 -519t-133 -524q-147 -204 -445 -205q-297 -1 -444 205zM713 1325q-471 0 -471 -629q0 -448 244 -579q91 -49 227 -49q471 0 471 628t-471 629zM958 1524h-106l-139 149l-140 -149h-106v10
l209 225h74l208 -225v-10z" />
    <glyph glyph-name="Otilde" unicode="&#xd5;" horiz-adv-x="1425" 
d="M268 175q-133 184 -133 519t133 524q148 205 446 205t443 -205q133 -184 133 -519t-133 -524q-147 -204 -445 -205q-297 -1 -444 205zM713 1325q-471 0 -471 -629q0 -448 244 -579q91 -49 227 -49q471 0 471 628t-471 629zM824 1647q52 0 104 71l47 -59
q-67 -102 -160 -100q-43 0 -91 27q-48 28 -72 40t-50 12q-53 0 -104 -71l-47 59q67 102 159 100q45 0 93 -27q47 -27 71 -39t50 -13z" />
    <glyph glyph-name="Odieresis" unicode="&#xd6;" horiz-adv-x="1425" 
d="M268 175q-133 184 -133 519t133 524q148 205 446 205t443 -205q133 -184 133 -519t-133 -524q-147 -204 -445 -205q-297 -1 -444 205zM713 1325q-471 0 -471 -629q0 -448 244 -579q91 -49 227 -49q471 0 471 628t-471 629zM815 1640q0 35 23 59q22 23 56 23t56 -24
t23 -58q0 -36 -23 -58q-22 -22 -56 -22t-56 23q-22 22 -23 57zM451 1640q0 35 22 59q23 23 57 23t56 -24t22 -58q0 -36 -22 -58t-57 -22q-34 0 -56 23q-22 22 -22 57z" />
    <glyph glyph-name="multiply" unicode="&#xd7;" 
d="M541 545l-342 342l61 65l344 -344l344 344l62 -65l-342 -342l342 -342l-66 -62l-340 340l-340 -340l-65 62z" />
    <glyph glyph-name="Oslash" unicode="&#xd8;" horiz-adv-x="1425" 
d="M1184 696q0 300 -107 453l-653 -991q111 -90 289 -90q471 0 471 628zM242 696q0 -318 116 -471l656 998q-110 102 -301 102q-471 0 -471 -629zM135 696q0 519 211 623t367 104q219 0 358 -114l84 129l78 -54l-94 -143q151 -190 151 -545q0 -517 -211 -622t-366 -105
q-207 0 -344 103l-78 -119l-78 51l86 131q-164 183 -164 561z" />
    <glyph glyph-name="Ugrave" unicode="&#xd9;" horiz-adv-x="1392" 
d="M295 1393v-899q0 -203 105 -315q106 -111 296 -111t296 111q105 112 106 315v899h102v-910q0 -237 -129 -375t-375 -138t-374 138q-128 140 -129 375v910h102zM541 1759h114l99 -225v-10h-92l-121 225v10z" />
    <glyph glyph-name="Uacute" unicode="&#xda;" horiz-adv-x="1392" 
d="M295 1393v-899q0 -203 105 -315q106 -111 296 -111t296 111q105 112 106 315v899h102v-910q0 -237 -129 -375t-375 -138t-374 138q-128 140 -129 375v910h102zM641 1524v10l98 225h115v-10l-121 -225h-92z" />
    <glyph glyph-name="Ucircumflex" unicode="&#xdb;" horiz-adv-x="1392" 
d="M295 1393v-899q0 -203 105 -315q106 -111 296 -111t296 111q105 112 106 315v899h102v-910q0 -237 -129 -375t-375 -138t-374 138q-128 140 -129 375v910h102zM942 1524h-106l-140 149l-139 -149h-106v10l208 225h74l209 -225v-10z" />
    <glyph glyph-name="Udieresis" unicode="&#xdc;" horiz-adv-x="1392" 
d="M295 1393v-899q0 -203 105 -315q106 -111 296 -111t296 111q105 112 106 315v899h102v-910q0 -237 -129 -375t-375 -138t-374 138q-128 140 -129 375v910h102zM799 1640q0 35 22 59q23 23 57 23t56 -24t22 -58q0 -36 -22 -58t-56 -22t-57 23q-22 22 -22 57zM434 1640
q0 35 23 59q23 23 57 23t56 -24t22 -58q0 -36 -23 -58t-57 -22t-56 23q-22 22 -22 57z" />
    <glyph glyph-name="Yacute" unicode="&#xdd;" horiz-adv-x="1093" 
d="M1057 1393v-13l-459 -786v-594h-102v594l-459 786v13h113l395 -686h4l395 686h113zM498 1524v10l98 225h115v-10l-121 -225h-92z" />
    <glyph glyph-name="Thorn" unicode="&#xde;" horiz-adv-x="1175" 
d="M305 412h318q342 0 342 310t-342 310h-318v-620zM203 0v1393h102v-265h330q213 0 324.5 -103t111.5 -304t-112.5 -303.5t-323.5 -102.5h-330v-315h-102z" />
    <glyph glyph-name="germandbls" unicode="&#xdf;" horiz-adv-x="1159" 
d="M944 391q0 235 -123 287.5t-215 52.5h-61v86h59q98 0 154.5 68.5t56.5 187.5t-68 199t-188 80q-158 0 -223.5 -95.5t-65.5 -281.5v-975h-98v975q0 231 94 350t275 119t279 -106t98 -255q0 -215 -156 -295v-4q285 -65 285 -393q0 -204 -120.5 -313t-318.5 -109
q-67 0 -102 11v90q45 -9 102 -9q156 0 246 79t90 251z" />
    <glyph glyph-name="agrave" unicode="&#xe0;" horiz-adv-x="1019" 
d="M741 487h-153q-303 0 -367 -122q-20 -41 -20 -97q0 -98 61 -152t162 -55q170 0 317 113v313zM877 -20q-106 0 -125 106h-4q-52 -45 -138 -81t-175 -36q-154 0 -248 81q-89 81 -89 228q0 297 475 295h168v60q-1 165 -75 229t-211 64t-258 -95l-45 74q131 113 321 113
q262 0 340 -210q27 -73 27 -175v-494q0 -37 12 -54t53 -17h56v-76q-48 -12 -84 -12zM344 1425h111l98 -225v-10h-88l-121 225v10z" />
    <glyph glyph-name="aacute" unicode="&#xe1;" horiz-adv-x="1019" 
d="M741 487h-153q-303 0 -367 -122q-20 -41 -20 -97q0 -98 61 -152t162 -55q170 0 317 113v313zM877 -20q-106 0 -125 106h-4q-52 -45 -138 -81t-175 -36q-154 0 -248 81q-89 81 -89 228q0 297 475 295h168v60q-1 165 -75 229t-211 64t-258 -95l-45 74q131 113 321 113
q262 0 340 -210q27 -73 27 -175v-494q0 -37 12 -54t53 -17h56v-76q-48 -12 -84 -12zM477 1190v10l98 225h111v-10l-121 -225h-88z" />
    <glyph glyph-name="acircumflex" unicode="&#xe2;" horiz-adv-x="1019" 
d="M741 487h-153q-303 0 -367 -122q-20 -41 -20 -97q0 -98 61 -152t162 -55q170 0 317 113v313zM877 -20q-106 0 -125 106h-4q-52 -45 -138 -81t-175 -36q-154 0 -248 81q-89 81 -89 228q0 297 475 295h168v60q-1 165 -75 229t-211 64t-258 -95l-45 74q131 113 321 113
q262 0 340 -210q27 -73 27 -175v-494q0 -37 12 -54t53 -17h56v-76q-48 -12 -84 -12zM752 1190h-105l-141 149l-141 -149h-105v10l209 225h74l209 -225v-10z" />
    <glyph glyph-name="atilde" unicode="&#xe3;" horiz-adv-x="1019" 
d="M741 487h-153q-303 0 -367 -122q-20 -41 -20 -97q0 -98 61 -152t162 -55q170 0 317 113v313zM877 -20q-106 0 -125 106h-4q-52 -45 -138 -81t-175 -36q-154 0 -248 81q-89 81 -89 228q0 297 475 295h168v60q-1 165 -75 229t-211 64t-258 -95l-45 74q131 113 321 113
q262 0 340 -210q27 -73 27 -175v-494q0 -37 12 -54t53 -17h56v-76q-48 -12 -84 -12zM406 1354q44 0 112 -40q67 -40 97 -40q56 0 108 74l47 -60q-66 -100 -160 -98q-47 0 -113 39t-91 41q-60 0 -113 -74l-47 59q65 99 160 99z" />
    <glyph glyph-name="adieresis" unicode="&#xe4;" horiz-adv-x="1019" 
d="M741 487h-153q-303 0 -367 -122q-20 -41 -20 -97q0 -98 61 -152t162 -55q170 0 317 113v313zM877 -20q-106 0 -125 106h-4q-52 -45 -138 -81t-175 -36q-154 0 -248 81q-89 81 -89 228q0 297 475 295h168v60q-1 165 -75 229t-211 64t-258 -95l-45 74q131 113 321 113
q262 0 340 -210q27 -73 27 -175v-494q0 -37 12 -54t53 -17h56v-76q-48 -12 -84 -12zM612 1282q0 34 23 58t57 24t56 -24t22 -58t-22 -58q-22 -22 -57 -22t-57 22t-22 58zM248 1282q0 34 22 58t57 24t57 -24t22 -58t-23 -58q-23 -22 -57 -22t-56 22t-22 58z" />
    <glyph glyph-name="aring" unicode="&#xe5;" horiz-adv-x="1019" 
d="M741 487h-153q-303 0 -367 -122q-20 -41 -20 -97q0 -98 61 -152t162 -55q170 0 317 113v313zM877 -20q-106 0 -125 106h-4q-52 -45 -138 -81t-175 -36q-154 0 -248 81q-89 81 -89 228q0 297 475 295h168v60q-1 165 -75 229t-211 64t-258 -95l-45 74q131 113 321 113
q262 0 340 -210q27 -73 27 -175v-494q0 -37 12 -54t53 -17h56v-76q-48 -12 -84 -12zM340 1274q0 74 47 118t121 44t121 -44t47 -118t-47 -118t-121 -44t-121 44t-47 118zM414 1274q0 -43 26 -67q26 -23 68 -23q43 0 69 24t25 66q0 42 -26 66t-68 24t-68 -24t-26 -66z" />
    <glyph glyph-name="ae" unicode="&#xe6;" horiz-adv-x="1685" 
d="M1475 586v35q0 133 -72 219t-221 86t-232.5 -93.5t-99.5 -265.5h623q2 16 2 19zM588 481q-306 0 -346.5 -78.5t-40.5 -134.5q0 -98 61.5 -152.5t143.5 -54.5q159 0 250.5 90t91.5 267v63h-160zM1176 1018q199 0 300 -113.5t101 -290.5q0 -67 -14 -135h-715
q7 -296 131.5 -357t221.5 -61t161.5 29t122.5 70l45 -78q-61 -45 -137 -79t-197 -34q-283 0 -393 244q-111 -244 -387 -244q-139 0 -228.5 81t-89.5 228q0 289 475 289h175v66q0 227 -108 260t-167 33q-153 0 -276 -95l-45 74q131 113 321 113q268 0 342 -223
q111 223 361 223z" />
    <glyph glyph-name="ccedilla" unicode="&#xe7;" horiz-adv-x="962" 
d="M500 -27q-169 21 -276 154t-107 367q1 233 117 378q116 146 331 146q173 0 301 -74l-35 -82q-118 62 -277 63q-160 1 -246 -120t-88 -309q-1 -187 86 -311t246 -124q158 0 279 64l35 -82q-120 -68 -277 -73l-22 -72q59 -6 105 -41t45 -119q1 -84 -59 -129t-153 -45
t-157 41l29 82q58 -37 135 -37q104 0 102 98q0 47 -35 63q-36 15 -106 15l-8 10z" />
    <glyph glyph-name="egrave" unicode="&#xe8;" horiz-adv-x="1079" 
d="M563 926q-143 0 -235 -96t-109 -267h649q2 15 2 29v24q0 218 -172 286q-57 24 -135 24zM973 614q0 -76 -15 -139h-741q7 -293 206 -383q69 -31 166 -31q154 0 292 99l45 -78q-62 -45 -142 -79t-202 -34q-231 0 -349 146q-119 146 -117 379q1 233 123 379q122 145 322 145
q199 0 306 -119q106 -119 106 -285zM410 1425h110l98 -225v-10h-88l-120 225v10z" />
    <glyph glyph-name="eacute" unicode="&#xe9;" horiz-adv-x="1079" 
d="M563 926q-143 0 -235 -96t-109 -267h649q2 15 2 29v24q0 218 -172 286q-57 24 -135 24zM973 614q0 -76 -15 -139h-741q7 -293 206 -383q69 -31 166 -31q154 0 292 99l45 -78q-62 -45 -142 -79t-202 -34q-231 0 -349 146q-119 146 -117 379q1 233 123 379q122 145 322 145
q199 0 306 -119q106 -119 106 -285zM510 1190v10l98 225h111v-10l-121 -225h-88z" />
    <glyph glyph-name="ecircumflex" unicode="&#xea;" horiz-adv-x="1079" 
d="M563 926q-143 0 -235 -96t-109 -267h649q2 15 2 29v24q0 218 -172 286q-57 24 -135 24zM973 614q0 -76 -15 -139h-741q7 -293 206 -383q69 -31 166 -31q154 0 292 99l45 -78q-62 -45 -142 -79t-202 -34q-231 0 -349 146q-119 146 -117 379q1 233 123 379q122 145 322 145
q199 0 306 -119q106 -119 106 -285zM811 1190h-104l-142 149l-141 -149h-105v10l209 225h74l209 -225v-10z" />
    <glyph glyph-name="edieresis" unicode="&#xeb;" horiz-adv-x="1079" 
d="M563 926q-143 0 -235 -96t-109 -267h649q2 15 2 29v24q0 218 -172 286q-57 24 -135 24zM973 614q0 -76 -15 -139h-741q7 -293 206 -383q69 -31 166 -31q154 0 292 99l45 -78q-62 -45 -142 -79t-202 -34q-231 0 -349 146q-119 146 -117 379q1 233 123 379q122 145 322 145
q199 0 306 -119q106 -119 106 -285zM670 1282q0 34 22 58t57 24t57 -24t22 -58t-24 -58q-22 -22 -56 -22t-56 22t-22 58zM305 1282q0 34 23 58q22 24 56 24t56 -24t23 -58q0 -34 -23 -58q-22 -22 -56 -22t-56 22t-23 58z" />
    <glyph glyph-name="igrave" unicode="&#xec;" horiz-adv-x="444" 
d="M53 1425h111l98 -225v-10h-88l-121 225v10zM174 0v987h98v-987h-98z" />
    <glyph glyph-name="iacute" unicode="&#xed;" horiz-adv-x="444" 
d="M180 1190v10l99 225h110v-10l-121 -225h-88zM172 0v987h98v-987h-98z" />
    <glyph glyph-name="icircumflex" unicode="&#xee;" horiz-adv-x="446" 
d="M174 0v987h98v-987h-98zM469 1190h-104l-142 149l-141 -149h-105v10l209 225h74l209 -225v-10z" />
    <glyph glyph-name="idieresis" unicode="&#xef;" horiz-adv-x="446" 
d="M328 1282q0 34 22 58t57 24t57 -24t22 -58t-24 -58q-22 -22 -56 -22t-56 22t-22 58zM-37 1282q0 34 23 58q22 24 56 24t56 -24t23 -58q0 -34 -23 -58q-22 -22 -56 -22t-56 22t-23 58zM174 0v987h98v-987h-98z" />
    <glyph glyph-name="eth" unicode="&#xf0;" horiz-adv-x="1177" 
d="M217 459q0 -90 26.5 -163t76 -125t118 -81t150.5 -29t150.5 29t117.5 81t75.5 125t26.5 163t-26.5 162.5t-75.5 125t-117.5 81t-150.5 28.5t-150.5 -28.5t-118 -81t-76 -125t-26.5 -162.5zM1061 459q0 -213 -130 -351.5t-344 -138.5t-343 137t-129 354t125 352.5
t329 135.5q94 0 178 -29.5t134 -89.5l4 5q-67 168 -252 362l-221 -76l-33 78l188 66q-86 82 -192 159v11h131q95 -80 153 -140l183 64l32 -76l-151 -53q338 -367 338 -770z" />
    <glyph glyph-name="ntilde" unicode="&#xf1;" horiz-adv-x="1136" 
d="M608 926q-179 0 -338 -121v-805h-98v987h80l10 -90h4q54 42 148 82q94 39 202 39q357 0 357 -389v-629h-99v612q0 162 -65 238q-66 76 -201 76zM485 1354q45 0 113 -40q67 -40 97 -40q56 0 108 74l47 -60q-66 -100 -160 -98q-47 0 -113 39t-92 41q-59 0 -112 -74l-47 59
q65 99 159 99z" />
    <glyph glyph-name="ograve" unicode="&#xf2;" horiz-adv-x="1150" 
d="M795 974q239 -120 239 -480q0 -361 -239 -481q-87 -44 -219 -44q-244 0 -361 161q-100 138 -98 364q0 360 239 480q88 44 219 44t220 -44zM574 926q-196 0 -284 -136q-71 -106 -71 -297t71 -295q91 -137 285 -137q352 0 357 433q0 295 -180 394q-70 38 -178 38zM422 1425
h110l99 -225v-10h-88l-121 225v10z" />
    <glyph glyph-name="oacute" unicode="&#xf3;" horiz-adv-x="1150" 
d="M795 974q239 -120 239 -480q0 -361 -239 -481q-87 -44 -219 -44q-244 0 -361 161q-100 138 -98 364q0 360 239 480q88 44 219 44t220 -44zM574 926q-196 0 -284 -136q-71 -106 -71 -297t71 -295q91 -137 285 -137q352 0 357 433q0 295 -180 394q-70 38 -178 38zM522 1190
v10l99 225h110v-10l-121 -225h-88z" />
    <glyph glyph-name="ocircumflex" unicode="&#xf4;" horiz-adv-x="1150" 
d="M795 974q239 -120 239 -480q0 -361 -239 -481q-87 -44 -219 -44q-244 0 -361 161q-100 138 -98 364q0 360 239 480q88 44 219 44t220 -44zM574 926q-196 0 -284 -136q-71 -106 -71 -297t71 -295q91 -137 285 -137q352 0 357 433q0 295 -180 394q-70 38 -178 38zM823 1190
h-104l-141 149l-142 -149h-104v10l209 225h73l209 -225v-10z" />
    <glyph glyph-name="otilde" unicode="&#xf5;" horiz-adv-x="1150" 
d="M795 974q239 -120 239 -480q0 -361 -239 -481q-87 -44 -219 -44q-244 0 -361 161q-100 138 -98 364q0 360 239 480q88 44 219 44t220 -44zM574 926q-196 0 -284 -136q-71 -106 -71 -297t71 -295q91 -137 285 -137q352 0 357 433q0 295 -180 394q-70 38 -178 38zM475 1354
q43 0 112 -40t99 -40q54 0 107 74l47 -60q-66 -100 -160 -98q-46 0 -113 39q-68 39 -92 41q-58 0 -113 -74l-47 59q65 99 160 99z" />
    <glyph glyph-name="odieresis" unicode="&#xf6;" horiz-adv-x="1150" 
d="M795 974q239 -120 239 -480q0 -361 -239 -481q-87 -44 -219 -44q-244 0 -361 161q-100 138 -98 364q0 360 239 480q88 44 219 44t220 -44zM574 926q-196 0 -284 -136q-71 -106 -71 -297t71 -295q91 -137 285 -137q352 0 357 433q0 295 -180 394q-70 38 -178 38zM682 1282
q0 34 23 58t57 24t56 -24t22 -58t-23 -58q-23 -22 -57 -22t-56 22t-22 58zM317 1282q0 34 23 58q22 24 56 24t57 -24t23 -58t-24 -58q-22 -22 -56 -22t-56 22t-23 58z" />
    <glyph glyph-name="divide" unicode="&#xf7;" 
d="M512 141q0 41 26 66t64 25t65 -26q25 -24 25 -65t-26 -65t-64 -25q-38 1 -64 25t-26 65zM512 948q0 43 25 67q25 23 65 23t66 -24q24 -24 24 -66t-24 -66t-66 -24t-66 24t-24 66zM1057 596v-88h-907v88h907z" />
    <glyph glyph-name="oslash" unicode="&#xf8;" horiz-adv-x="1150" 
d="M858 793l-496 -672q81 -60 200 -60t189 38t125.5 122t55.5 272t-74 300zM587 926q-121 0 -244.5 -69t-123.5 -363q0 -202 82 -314l494 680q-87 66 -208 66zM117 494q0 360 163.5 442t308.5 82t263 -78l66 90l75 -55l-73 -98q114 -138 114 -383q0 -362 -163.5 -443.5
t-310.5 -81.5t-255 74l-67 -92l-66 51l70 96q-125 132 -125 396z" />
    <glyph glyph-name="ugrave" unicode="&#xf9;" horiz-adv-x="1120" 
d="M164 358v629h98v-612q0 -162 62 -238t196 -76q174 0 330 121v805h98v-987h-80l-10 90h-4q-151 -118 -340 -121q-350 0 -350 389zM401 1425h111l98 -225v-10h-88l-121 225v10z" />
    <glyph glyph-name="uacute" unicode="&#xfa;" horiz-adv-x="1120" 
d="M164 358v629h98v-612q0 -162 62 -238t196 -76q174 0 330 121v805h98v-987h-80l-10 90h-4q-151 -118 -340 -121q-350 0 -350 389zM502 1190v10l98 225h111v-10l-121 -225h-88z" />
    <glyph glyph-name="ucircumflex" unicode="&#xfb;" horiz-adv-x="1120" 
d="M164 358v629h98v-612q0 -162 62 -238t196 -76q174 0 330 121v805h98v-987h-80l-10 90h-4q-151 -118 -340 -121q-350 0 -350 389zM801 1190h-105l-141 149l-141 -149h-105v10l209 225h74l209 -225v-10z" />
    <glyph glyph-name="udieresis" unicode="&#xfc;" horiz-adv-x="1120" 
d="M164 358v629h98v-612q0 -162 62 -238t196 -76q174 0 330 121v805h98v-987h-80l-10 90h-4q-151 -118 -340 -121q-350 0 -350 389zM659 1282q0 34 23 58q22 24 56 24t57 -24t23 -58t-24 -58q-22 -22 -56 -22t-56 22t-23 58zM295 1282q1 34 23 58t56 24t56 -24t23 -58
q0 -34 -23 -58q-22 -22 -56 -22t-56 22t-23 58z" />
    <glyph glyph-name="yacute" unicode="&#xfd;" horiz-adv-x="970" 
d="M197 -344q65 0 114 54t78 130l62 164l-400 971v12h105l340 -852h6l311 852h100v-12l-421 -1143q-49 -129 -119 -199t-180 -69q-61 0 -127 18v90q66 -16 131 -16zM444 1190v10l99 225h110v-10l-121 -225h-88z" />
    <glyph glyph-name="thorn" unicode="&#xfe;" horiz-adv-x="1130" 
d="M909 610.5q0 315.5 -309 315.5q-98 0 -186 -38t-144 -100v-589q55 -61 143.5 -99.5t181.5 -38.5t152.5 34t110.5 117t51 398.5zM270 1434v-533h4q57 45 136 81t196 36q211 0 308.5 -144.5t97.5 -379.5q0 -364 -144.5 -444.5t-261.5 -80.5t-194.5 35t-137.5 82h-4v-492
h-98v1840h98z" />
    <glyph glyph-name="ydieresis" unicode="&#xff;" horiz-adv-x="970" 
d="M197 -344q65 0 114 54t78 130l62 164l-400 971v12h105l340 -852h6l311 852h100v-12l-421 -1143q-49 -129 -119 -199t-180 -69q-61 0 -127 18v90q66 -16 131 -16zM602 1282q0 34 23 58t57 24t56 -24t22 -58t-23 -58q-23 -22 -57 -22t-56 22t-22 58zM238 1282q0 34 22 58
t56 24t57 -24t23 -58t-24 -58q-22 -22 -56 -22t-56 22t-22 58z" />
    <glyph glyph-name="Amacron" unicode="&#x100;" horiz-adv-x="1202" 
d="M600 1257l-283 -786h568l-283 786h-2zM1163 0h-108l-135 377h-637l-136 -377h-108l510 1393h104zM358 1608v92h490v-92h-490z" />
    <glyph glyph-name="amacron" unicode="&#x101;" horiz-adv-x="1019" 
d="M741 487h-153q-303 0 -367 -122q-20 -41 -20 -97q0 -98 61 -152t162 -55q170 0 317 113v313zM877 -20q-106 0 -125 106h-4q-52 -45 -138 -81t-175 -36q-154 0 -248 81q-89 81 -89 228q0 297 475 295h168v60q-1 165 -75 229t-211 64t-258 -95l-45 74q131 113 321 113
q262 0 340 -210q27 -73 27 -175v-494q0 -37 12 -54t53 -17h56v-76q-48 -12 -84 -12zM264 1221v88h490v-88h-490z" />
    <glyph glyph-name="Abreve" unicode="&#x102;" horiz-adv-x="1202" 
d="M600 1257l-283 -786h568l-283 786h-2zM1163 0h-108l-135 377h-637l-136 -377h-108l510 1393h104zM602 1655q90 0 132 32t71 70l53 -45q-35 -61 -93 -104q-59 -43 -163 -43t-163 43q-58 43 -93 104l53 45q29 -39 71 -71t132 -31z" />
    <glyph glyph-name="abreve" unicode="&#x103;" horiz-adv-x="1019" 
d="M741 487h-153q-303 0 -367 -122q-20 -41 -20 -97q0 -98 61 -152t162 -55q170 0 317 113v313zM877 -20q-106 0 -125 106h-4q-52 -45 -138 -81t-175 -36q-154 0 -248 81q-89 81 -89 228q0 297 475 295h168v60q-1 165 -75 229t-211 64t-258 -95l-45 74q131 113 321 113
q262 0 340 -210q27 -73 27 -175v-494q0 -37 12 -54t53 -17h56v-76q-48 -12 -84 -12zM508 1255q90 0 132 32t71 71l53 -41q-35 -61 -93 -105q-59 -44 -163 -43q-104 0 -163 43q-58 43 -93 105l53 41q29 -39 71 -71t132 -32z" />
    <glyph glyph-name="Aogonek" unicode="&#x104;" horiz-adv-x="1202" 
d="M600 1257l-283 -786h568l-283 786h-2zM1014 -436q-88 0 -135 48t-47 110t23 107q43 79 153 159q20 14 41 29l-129 360h-637l-136 -377h-108l510 1393h104l510 -1393q-125 -84 -184 -137t-59 -117q0 -36 24 -66t84 -30q61 0 133 47l15 -78q-74 -55 -162 -55z" />
    <glyph glyph-name="aogonek" unicode="&#x105;" horiz-adv-x="1019" 
d="M424 61q170 0 317 113v313h-153q-306 0 -346.5 -81.5t-40.5 -137.5q0 -98 61.5 -152.5t161.5 -54.5zM627 -262q0 78 53 137t137 117q-53 23 -65 94h-4q-53 -45 -138.5 -81t-174.5 -36q-158 0 -247.5 81t-89.5 228q0 295 475 295h168v60q0 164 -74.5 228.5t-210.5 64.5
t-259 -95l-45 74q131 113 321 113q262 0 314.5 -141.5t52.5 -243.5v-494q0 -37 12 -54t53 -17h56v-76q-61 -43 -153.5 -104.5t-92.5 -129.5q0 -108 98 -108q71 0 143 47l15 -78q-74 -55 -162 -55t-135 48t-47 126z" />
    <glyph glyph-name="Cacute" unicode="&#x106;" horiz-adv-x="1187" 
d="M135 696q0 524 333 675q116 52 289 52t335 -92l-39 -86q-145 80 -294 80q-521 0 -517 -629q0 -628 503 -628q165 0 308 79l39 -86q-163 -92 -336 -92q-474 0 -586 429q-35 134 -35 298zM664 1524v10l98 225h115v-10l-121 -225h-92z" />
    <glyph glyph-name="cacute" unicode="&#x107;" horiz-adv-x="962" 
d="M866 43q-126 -72 -320 -73t-311 145q-118 147 -118 379q1 233 117 378q116 146 331 146q173 0 301 -74l-35 -82q-118 62 -277 63q-160 1 -246 -120t-88 -309q-1 -187 86 -311t246 -124q158 0 279 64zM514 1190v10l98 225h111v-10l-121 -225h-88z" />
    <glyph glyph-name="Ccircumflex" unicode="&#x108;" horiz-adv-x="1187" 
d="M135 696q0 524 333 675q116 52 289 52t335 -92l-39 -86q-145 80 -294 80q-521 0 -517 -629q0 -628 503 -628q165 0 308 79l39 -86q-163 -92 -336 -92q-474 0 -586 429q-35 134 -35 298zM956 1524h-106l-139 149l-140 -149h-106v10l209 225h74l208 -225v-10z" />
    <glyph glyph-name="ccircumflex" unicode="&#x109;" horiz-adv-x="962" 
d="M866 43q-126 -72 -320 -73t-311 145q-118 147 -118 379q1 233 117 378q116 146 331 146q173 0 301 -74l-35 -82q-118 62 -277 63q-160 1 -246 -120t-88 -309q-1 -187 86 -311t246 -124q158 0 279 64zM815 1190h-104l-142 149l-141 -149h-104v10l208 225h74l209 -225v-10z
" />
    <glyph glyph-name="Cdotaccent" unicode="&#x10a;" horiz-adv-x="1187" 
d="M135 696q0 524 333 675q116 52 289 52t335 -92l-39 -86q-145 80 -294 80q-521 0 -517 -629q0 -628 503 -628q165 0 308 79l39 -86q-163 -92 -336 -92q-474 0 -586 429q-35 134 -35 298zM631 1642q0 35 22 59q23 23 57 23t56 -24t22 -58q0 -36 -22 -58t-56 -22t-57 23
q-22 22 -22 57z" />
    <glyph glyph-name="cdotaccent" unicode="&#x10b;" horiz-adv-x="962" 
d="M866 43q-126 -72 -320 -73t-311 145q-118 147 -118 379q1 233 117 378q116 146 331 146q173 0 301 -74l-35 -82q-118 62 -277 63q-160 1 -246 -120t-88 -309q-1 -187 86 -311t246 -124q158 0 279 64zM492 1282q0 34 22 58t56 24t57 -24t23 -58t-24 -58q-22 -22 -56 -22
t-56 22t-22 58z" />
    <glyph glyph-name="Ccaron" unicode="&#x10c;" horiz-adv-x="1187" 
d="M135 696q0 524 333 675q116 52 289 52t335 -92l-39 -86q-145 80 -294 80q-521 0 -517 -629q0 -628 503 -628q165 0 308 79l39 -86q-163 -92 -336 -92q-474 0 -586 429q-35 134 -35 298zM465 1759h106l140 -149l139 149h106v-10l-208 -225h-74l-209 225v10z" />
    <glyph glyph-name="ccaron" unicode="&#x10d;" horiz-adv-x="962" 
d="M866 43q-126 -72 -320 -73t-311 145q-118 147 -118 379q1 233 117 378q116 146 331 146q173 0 301 -74l-35 -82q-118 62 -277 63q-160 1 -246 -120t-88 -309q-1 -187 86 -311t246 -124q158 0 279 64zM324 1425h104l141 -149l142 149h104v-10l-209 -225h-74l-208 225v10z
" />
    <glyph glyph-name="Dcaron" unicode="&#x10e;" horiz-adv-x="1366" 
d="M516 96q342 0 477 142t134 460q-1 319 -136 460q-135 140 -475 138h-211v-1200h211zM203 1393h327q378 0 540 -174t161 -523q0 -349 -162 -522q-162 -174 -539 -174h-327v1393zM399 1759h107l139 -149l139 149h107v-10l-209 -225h-74l-209 225v10z" />
    <glyph glyph-name="dcaron" unicode="&#x10f;" horiz-adv-x="1132" 
d="M496 1018q190 0 299 -73q33 -22 61 -44h4v533h98v-1434h-77l-13 90h-4q-147 -121 -349 -121t-299 147t-95 378q0 364 213 482q76 42 162 42zM532 926q-304 0 -309 -432q0 -306 162 -399q59 -34 151 -34t180 38t144 100v589q-55 62 -143 100t-185 38zM1202 1393v-13
l-63 -274h-78v12l33 275h108z" />
    <glyph glyph-name="Dcroat" unicode="&#x110;" horiz-adv-x="1368" 
d="M518 96q342 0 477 142t134 460q-1 319 -136 460q-135 140 -475 138h-211v-561h365v-96h-365v-543h211zM205 639h-109v96h109v658h327q378 0 540 -174t161 -523q0 -349 -162 -522q-162 -174 -539 -174h-327v639z" />
    <glyph glyph-name="dcroat" unicode="&#x111;" horiz-adv-x="1132" 
d="M536 926q-92 0 -151 -34t-95 -92.5t-51.5 -137t-15.5 -222.5t72.5 -261.5t236.5 -117.5q96 0 184.5 38t143.5 100v589q-55 61 -143.5 99.5t-180.5 38.5zM121 494q0 364 144.5 444t230.5 80q136 0 211.5 -29.5t148.5 -87.5h4v270h-237v89h237v174h98v-174h158v-89h-158
v-1171h-77l-13 90h-4q-147 -121 -349 -121t-298 145.5t-96 379.5z" />
    <glyph glyph-name="Emacron" unicode="&#x112;" horiz-adv-x="1175" 
d="M1040 1393v-97h-735v-532h674v-96h-674v-572h742v-96h-844v1393h837zM387 1608v92h490v-92h-490z" />
    <glyph glyph-name="emacron" unicode="&#x113;" horiz-adv-x="1079" 
d="M563 926q-143 0 -235 -96t-109 -267h649q2 15 2 29v24q0 218 -172 286q-57 24 -135 24zM973 614q0 -76 -15 -139h-741q7 -293 206 -383q69 -31 166 -31q154 0 292 99l45 -78q-62 -45 -142 -79t-202 -34q-231 0 -349 146q-119 146 -117 379q1 233 123 379q122 145 322 145
q199 0 306 -119q106 -119 106 -285zM322 1221v88h489v-88h-489z" />
    <glyph glyph-name="Ebreve" unicode="&#x114;" horiz-adv-x="1175" 
d="M1040 1393v-97h-735v-532h674v-96h-674v-572h742v-96h-844v1393h837zM631 1655q90 0 132 32t71 70l53 -45q-35 -61 -93 -104t-162 -43t-164 43q-58 43 -93 104l53 45q29 -39 71 -71t132 -31z" />
    <glyph glyph-name="ebreve" unicode="&#x115;" horiz-adv-x="1079" 
d="M563 926q-143 0 -235 -96t-109 -267h649q2 15 2 29v24q0 218 -172 286q-57 24 -135 24zM973 614q0 -76 -15 -139h-741q7 -293 206 -383q69 -31 166 -31q154 0 292 99l45 -78q-62 -45 -142 -79t-202 -34q-231 0 -349 146q-119 146 -117 379q1 233 123 379q122 145 322 145
q199 0 306 -119q106 -119 106 -285zM565 1255q90 0 132 32t71 71l53 -41q-35 -61 -93 -105t-162 -43q-104 0 -164 43q-58 43 -93 105l53 41q29 -39 71 -71t132 -32z" />
    <glyph glyph-name="Edotaccent" unicode="&#x116;" horiz-adv-x="1175" 
d="M1040 1393v-97h-735v-532h674v-96h-674v-572h742v-96h-844v1393h837zM551 1642q0 35 22 59q23 23 57 23t56 -24t23 -58q0 -36 -23 -58q-22 -22 -56 -22t-57 23q-22 22 -22 57z" />
    <glyph glyph-name="edotaccent" unicode="&#x117;" horiz-adv-x="1079" 
d="M563 926q-143 0 -235 -96t-109 -267h649q2 15 2 29v24q0 218 -172 286q-57 24 -135 24zM973 614q0 -76 -15 -139h-741q7 -293 206 -383q69 -31 166 -31q154 0 292 99l45 -78q-62 -45 -142 -79t-202 -34q-231 0 -349 146q-119 146 -117 379q1 233 123 379q122 145 322 145
q199 0 306 -119q106 -119 106 -285zM487 1282q0 34 23 58q22 24 56 24t57 -24t23 -58t-24 -58q-22 -22 -56 -22t-56 22t-23 58z" />
    <glyph glyph-name="Eogonek" unicode="&#x118;" horiz-adv-x="1175" 
d="M715 -278q0 62 23 107q43 79 153 159q9 6 17 12h-705v1393h837v-97h-735v-532h674v-96h-674v-572h742v-96q-125 -84 -185 -137t-59 -117q-1 -36 23 -66t85 -30t133 47l15 -78q-74 -55 -162 -55t-135 48t-47 110z" />
    <glyph glyph-name="eogonek" unicode="&#x119;" horiz-adv-x="1079" 
d="M563 926q-143 0 -235 -95.5t-109 -267.5h649q2 16 2 19v34q0 216 -114.5 263t-192.5 47zM569 -268q0 135 125 248q-53 -11 -143 -11t-178 41t-145.5 112t-84 167t-26.5 266.5t123 316.5t321 146q199 0 305.5 -118.5t106.5 -289.5q0 -73 -15 -135h-741q7 -293 141 -353.5
t231 -60.5t165.5 29t126.5 70l45 -78l-45 -31q-224 -160 -224 -305q0 -35 24 -65.5t84 -30.5t134 47l14 -78q-74 -55 -162 -55q-87 0 -134.5 48t-47.5 120z" />
    <glyph glyph-name="Ecaron" unicode="&#x11a;" horiz-adv-x="1175" 
d="M1040 1393v-97h-735v-532h674v-96h-674v-572h742v-96h-844v1393h837zM385 1759h107l139 -149l139 149h107v-10l-209 -225h-74l-209 225v10z" />
    <glyph glyph-name="ecaron" unicode="&#x11b;" horiz-adv-x="1079" 
d="M563 926q-143 0 -235 -96t-109 -267h649q2 15 2 29v24q0 218 -172 286q-57 24 -135 24zM973 614q0 -76 -15 -139h-741q7 -293 206 -383q69 -31 166 -31q154 0 292 99l45 -78q-62 -45 -142 -79t-202 -34q-231 0 -349 146q-119 146 -117 379q1 233 123 379q122 145 322 145
q199 0 306 -119q106 -119 106 -285zM319 1425h105l141 -149l142 149h104v-10l-209 -225h-74l-209 225v10z" />
    <glyph glyph-name="Gcircumflex" unicode="&#x11c;" horiz-adv-x="1310" 
d="M715 68q205 0 344 92v403l-297 19v77h399v-553q-193 -137 -446 -137q-289 0 -435 198q-147 198 -147 525q0 326 153 528t437 203q239 0 426 -123l-47 -83q-171 108 -394 108t-348 -173q-124 -173 -122 -456q0 -440 258 -579q90 -49 219 -49zM969 1524h-107l-139 149
l-139 -149h-107v10l209 225h74l209 -225v-10z" />
    <glyph glyph-name="gcircumflex" unicode="&#x11d;" horiz-adv-x="1130" 
d="M520 1018q197 0 344 -121h4l11 90h79v-991q0 -203 -110 -318q-110 -114 -289 -114q-180 0 -338 92l37 84q135 -80 295 -80q212 0 284 176q24 59 23 139v113h-4q-137 -117 -340 -117t-301 147t-96 376q0 364 216 482q77 42 185 42zM532 926q-306 0 -311 -432
q0 -304 164 -399q59 -34 150 -34t181 38t144 100v589q-55 62 -144 100t-184 38zM815 1190h-104l-142 149l-141 -149h-104v10l208 225h74l209 -225v-10z" />
    <glyph glyph-name="Gbreve" unicode="&#x11e;" horiz-adv-x="1310" 
d="M715 68q205 0 344 92v403l-297 19v77h399v-553q-193 -137 -446 -137q-289 0 -435 198q-147 198 -147 525q0 326 153 528t437 203q239 0 426 -123l-47 -83q-171 108 -394 108t-348 -173q-124 -173 -122 -456q0 -440 258 -579q90 -49 219 -49zM723 1655q90 0 132 32t71 70
l53 -45q-35 -61 -93 -104t-162 -43t-164 43q-58 43 -93 104l53 45q29 -39 71 -71t132 -31z" />
    <glyph glyph-name="gbreve" unicode="&#x11f;" horiz-adv-x="1130" 
d="M520 1018q197 0 344 -121h4l11 90h79v-991q0 -203 -110 -318q-110 -114 -289 -114q-180 0 -338 92l37 84q135 -80 295 -80q212 0 284 176q24 59 23 139v113h-4q-137 -117 -340 -117t-301 147t-96 376q0 364 216 482q77 42 185 42zM532 926q-306 0 -311 -432
q0 -304 164 -399q59 -34 150 -34t181 38t144 100v589q-55 62 -144 100t-184 38zM569 1255q90 0 132 32t71 71l53 -41q-35 -61 -93 -105t-162 -43q-104 0 -163 43q-58 43 -94 105l54 41q29 -39 71 -71t131 -32z" />
    <glyph glyph-name="Gdotaccent" unicode="&#x120;" horiz-adv-x="1310" 
d="M715 68q205 0 344 92v403l-297 19v77h399v-553q-193 -137 -446 -137q-289 0 -435 198q-147 198 -147 525q0 326 153 528t437 203q239 0 426 -123l-47 -83q-171 108 -394 108t-348 -173q-124 -173 -122 -456q0 -440 258 -579q90 -49 219 -49zM643 1642q0 35 23 59
q22 23 56 23t56 -24t23 -58q0 -36 -23 -58q-22 -22 -56 -22t-56 23q-22 22 -23 57z" />
    <glyph glyph-name="gdotaccent" unicode="&#x121;" horiz-adv-x="1130" 
d="M520 1018q197 0 344 -121h4l11 90h79v-991q0 -203 -110 -318q-110 -114 -289 -114q-180 0 -338 92l37 84q135 -80 295 -80q212 0 284 176q24 59 23 139v113h-4q-137 -117 -340 -117t-301 147t-96 376q0 364 216 482q77 42 185 42zM532 926q-306 0 -311 -432
q0 -304 164 -399q59 -34 150 -34t181 38t144 100v589q-55 62 -144 100t-184 38zM492 1282q0 34 22 58t56 24t57 -24t23 -58t-24 -58q-22 -22 -56 -22t-56 22t-22 58z" />
    <glyph glyph-name="uni0122" unicode="&#x122;" horiz-adv-x="1310" 
d="M715 68q205 0 344 92v403l-297 19v77h399v-553q-193 -137 -446 -137q-289 0 -435 198q-147 198 -147 525q0 326 153 528t437 203q239 0 426 -123l-47 -83q-171 108 -394 108t-348 -173q-124 -173 -122 -456q0 -440 258 -579q90 -49 219 -49zM776 -160v-12l-63 -274h-78
v12l33 274h108z" />
    <glyph glyph-name="uni0123" unicode="&#x123;" horiz-adv-x="1130" 
d="M520 1018q197 0 344 -121h4l11 90h79v-991q0 -203 -110 -318q-110 -114 -289 -114q-180 0 -338 92l37 84q135 -80 295 -80q212 0 284 176q24 59 23 139v113h-4q-137 -117 -340 -117t-301 147t-96 376q0 364 216 482q77 42 185 42zM532 926q-306 0 -311 -432
q0 -304 164 -399q59 -34 150 -34t181 38t144 100v589q-55 62 -144 100t-184 38zM518 1180v12l64 274h77v-12l-32 -274h-109z" />
    <glyph glyph-name="Hcircumflex" unicode="&#x124;" horiz-adv-x="1406" 
d="M1102 668h-797v-668h-102v1393h102v-629h797v629h102v-1393h-102v668zM948 1524h-106l-140 149l-139 -149h-106v10l209 225h73l209 -225v-10z" />
    <glyph glyph-name="hcircumflex" unicode="&#x125;" horiz-adv-x="1136" 
d="M616 1018q357 0 357 -389v-629h-99v612q0 162 -66 238q-67 76 -200 76q-179 0 -338 -121v-805h-98v1434h98v-531h4q165 115 342 115zM815 1544h-106l-140 150l-139 -150h-106v10l208 226h74l209 -226v-10z" />
    <glyph glyph-name="Hbar" unicode="&#x126;" horiz-adv-x="1406" 
d="M1102 764v299h-797v-299h797zM1102 668h-797v-668h-102v1063h-82v96h82v234h102v-234h797v234h102v-234h82v-96h-82v-1063h-102v668z" />
    <glyph glyph-name="hbar" unicode="&#x127;" horiz-adv-x="1138" 
d="M610 926q-179 0 -338 -121v-805h-98v1171h-158v89h158v174h98v-174h238v-89h-238v-268h4q89 54 165.5 84.5t176.5 30.5q176 0 266.5 -98.5t90.5 -290.5v-629h-98v612q0 314 -267 314z" />
    <glyph glyph-name="Itilde" unicode="&#x128;" horiz-adv-x="505" 
d="M303 0h-100v1393h100v-1393zM362 1647q54 0 105 71l47 -59q-67 -102 -160 -100q-44 -1 -114 39q-69 40 -97 40q-55 0 -106 -71l-47 59q67 102 160 100q44 0 92 -27q46 -27 70 -39t50 -13z" />
    <glyph glyph-name="itilde" unicode="&#x129;" horiz-adv-x="446" 
d="M121 1354q44 0 112 -40q67 -40 98 -40q56 0 107 74l47 -60q-66 -100 -159 -98q-48 0 -114 39t-91 41q-60 0 -113 -74l-47 59q65 99 160 99zM174 0v987h98v-987h-98z" />
    <glyph glyph-name="Imacron" unicode="&#x12a;" horiz-adv-x="505" 
d="M303 0h-100v1393h100v-1393zM8 1608v92h490v-92h-490z" />
    <glyph glyph-name="imacron" unicode="&#x12b;" horiz-adv-x="446" 
d="M-20 1221v88h489v-88h-489zM174 0v987h98v-987h-98z" />
    <glyph glyph-name="Ibreve" unicode="&#x12c;" horiz-adv-x="505" 
d="M303 0h-100v1393h100v-1393zM252 1655q90 0 132 32t71 70l53 -45q-35 -61 -93 -104q-59 -43 -163 -43t-163 43q-58 43 -93 104l53 45q29 -39 71 -71t132 -31z" />
    <glyph glyph-name="ibreve" unicode="&#x12d;" horiz-adv-x="446" 
d="M223 1255q90 0 132 32t71 71l53 -41q-35 -61 -93 -105t-162 -43q-104 0 -164 43q-58 43 -93 105l53 41q29 -39 71 -71t132 -32zM174 0v987h98v-987h-98z" />
    <glyph glyph-name="Iogonek" unicode="&#x12e;" horiz-adv-x="507" 
d="M206 -436q-79 0 -124 47t-45 119q0 135 168 281v1382h100v-1390l2 -3q-92 -86 -137 -141t-45 -105q0 -105 98 -104q54 0 103 47l14 -78q-55 -55 -134 -55z" />
    <glyph glyph-name="iogonek" unicode="&#x12f;" horiz-adv-x="444" 
d="M143 1282q0 34 23 58q22 24 56 24t57 -24t23 -58t-24 -58q-22 -22 -56 -22t-56 22t-23 58zM173 -436q-79 0 -124 47t-45 119q0 134 170 283v974h98v-984l2 -3q-92 -86 -137 -141t-45 -105q0 -105 98 -104q54 0 103 47l14 -78q-55 -55 -134 -55z" />
    <glyph glyph-name="Idotaccent" unicode="&#x130;" horiz-adv-x="505" 
d="M303 0h-100v1393h100v-1393zM174 1642q0 35 23 59q23 23 57 23t56 -24t22 -58q0 -36 -23 -58t-57 -22t-56 23q-22 22 -22 57z" />
    <glyph glyph-name="dotlessi" unicode="&#x131;" horiz-adv-x="442" 
d="M172 0v987h98v-987h-98z" />
    <glyph glyph-name="IJ" unicode="&#x132;" horiz-adv-x="1433" 
d="M303 0h-100v1393h100v-1393zM1137 1393h102v-1012q0 -197 -99 -305t-259 -107q-99 0 -185 43t-139 94l55 76q116 -116 269 -114q182 0 236 173q19 60 20 146v1006z" />
    <glyph glyph-name="ij" unicode="&#x133;" horiz-adv-x="884" 
d="M141 1282q0 34 23 58q22 24 56 24t56 -24t23 -58q0 -34 -23 -58q-22 -22 -56 -22t-56 22t-23 58zM172 0v987h98v-987h-98zM584 1282q0 34 22 58t57 24t57 -24t22 -58t-24 -58q-22 -22 -56 -22t-56 22t-22 58zM483 -344q131 0 131 182v1149h99v-1114q1 -170 -55 -240
t-173 -69q-62 0 -114 16v88q51 -12 112 -12z" />
    <glyph glyph-name="Jcircumflex" unicode="&#x134;" horiz-adv-x="927" 
d="M631 1393h102v-1012q0 -197 -99 -305t-259 -107q-99 0 -185 43t-139 94l55 76q116 -116 269 -114q182 0 236 173q19 60 20 146v1006zM926 1524h-107l-139 149l-139 -149h-107v10l209 225h74l209 -225v-10z" />
    <glyph glyph-name="jcircumflex" unicode="&#x135;" horiz-adv-x="446" 
d="M43 -344q131 0 131 182v1149h98v-1114q0 -170 -55 -240t-172 -69q-43 0 -115 16v88q51 -12 113 -12zM465 1190h-105l-141 149l-141 -149h-105v10l209 225h74l209 -225v-10z" />
    <glyph glyph-name="uni0136" unicode="&#x136;" horiz-adv-x="1138" 
d="M305 651v-651h-102v1393h102v-691h4l641 691h119v-13l-645 -696l684 -672v-12h-133l-666 651h-4zM639 -160v-12l-64 -274h-77v12l32 274h109z" />
    <glyph glyph-name="uni0137" unicode="&#x137;" horiz-adv-x="911" 
d="M270 461v-461h-98v1434h98v-918h4l465 471h121v-10l-485 -483l502 -484v-10h-129l-474 461h-4zM518 -160v-12l-63 -274h-78v12l33 274h108z" />
    <glyph glyph-name="kgreenlandic" unicode="&#x138;" horiz-adv-x="911" 
d="M270 461v-461h-98v987h98v-471h4l465 471h121v-10l-485 -483l502 -484v-10h-127l-476 461h-4z" />
    <glyph glyph-name="Lacute" unicode="&#x139;" horiz-adv-x="1026" 
d="M305 1393v-1297h662v-96h-764v1393h102zM211 1524v10l98 225h115v-10l-121 -225h-92z" />
    <glyph glyph-name="lacute" unicode="&#x13a;" horiz-adv-x="475" 
d="M274 1434v-1270q0 -47 14 -72t62 -24h72v-76q-37 -12 -86 -12q-88 0 -124 49t-36 151v1254h98zM186 1544v10l99 226h114v-11l-120 -225h-93z" />
    <glyph glyph-name="uni013B" unicode="&#x13b;" horiz-adv-x="1026" 
d="M305 1393v-1297h662v-96h-764v1393h102zM639 -160v-12l-64 -274h-77v12l32 274h109z" />
    <glyph glyph-name="uni013C" unicode="&#x13c;" horiz-adv-x="475" 
d="M274 1434v-1270q0 -47 14 -72t62 -24h72v-76q-37 -12 -86 -12q-88 0 -124 49t-36 151v1254h98zM338 -160v-12l-64 -274h-77v12l32 274h109z" />
    <glyph glyph-name="Lcaron" unicode="&#x13d;" horiz-adv-x="1026" 
d="M305 1393v-1297h662v-96h-764v1393h102zM705 1393v-13l-64 -274h-78v12l33 275h109z" />
    <glyph glyph-name="lcaron" unicode="&#x13e;" horiz-adv-x="475" 
d="M274 1434v-1270q0 -47 14 -72t62 -24h72v-76q-37 -12 -86 -12q-88 0 -124 49t-36 151v1254h98zM520 1393v-13l-63 -274h-78v12l33 275h108z" />
    <glyph glyph-name="Ldot" unicode="&#x13f;" horiz-adv-x="1026" 
d="M305 1393v-1297h662v-96h-764v1393h102zM637 702q0 41 26 66q27 25 65 25t64 -25t26 -66q0 -42 -26 -66t-65 -24t-65 24t-25 66z" />
    <glyph glyph-name="ldot" unicode="&#x140;" horiz-adv-x="616" 
d="M274 1434v-1270q0 -47 14 -72t62 -24h72v-76q-37 -12 -86 -12q-88 0 -124 49t-36 151v1254h98zM444 723q0 41 26 65t65 25q39 0 65 -25q26 -26 25 -66q0 -40 -26 -65q-27 -25 -65 -25t-64 26q-26 24 -26 65z" />
    <glyph glyph-name="Lslash" unicode="&#x141;" horiz-adv-x="1036" 
d="M315 1393v-594l220 135h10v-103l-230 -143v-592h662v-96h-764v625l-125 -76h-10v102l135 84v658h102z" />
    <glyph glyph-name="lslash" unicode="&#x142;" horiz-adv-x="569" 
d="M315 1434v-621l193 121h10v-103l-203 -126v-541q0 -47 14.5 -71.5t61.5 -24.5h72v-76q-37 -12 -86 -12q-88 0 -124 49t-36 151v465l-156 -96h-10v102l166 103v680h98z" />
    <glyph glyph-name="Nacute" unicode="&#x143;" horiz-adv-x="1413" 
d="M1110 188v1205h100v-1393h-98l-803 1206h-4v-1206h-102v1393h98l805 -1205h4zM662 1524v10l98 225h114v-10l-120 -225h-92z" />
    <glyph glyph-name="nacute" unicode="&#x144;" horiz-adv-x="1136" 
d="M608 926q-179 0 -338 -121v-805h-98v987h80l10 -90h4q54 42 148 82q94 39 202 39q357 0 357 -389v-629h-99v612q0 162 -65 238q-66 76 -201 76zM530 1190v10l99 225h110v-10l-121 -225h-88z" />
    <glyph glyph-name="uni0145" unicode="&#x145;" horiz-adv-x="1413" 
d="M1110 188v1205h100v-1393h-98l-803 1206h-4v-1206h-102v1393h98l805 -1205h4zM750 -160v-12l-64 -274h-78v12l33 274h109z" />
    <glyph glyph-name="uni0146" unicode="&#x146;" horiz-adv-x="1136" 
d="M608 926q-179 0 -338 -121v-805h-98v987h80l10 -90h4q54 42 148 82q94 39 202 39q357 0 357 -389v-629h-99v612q0 162 -65 238q-66 76 -201 76zM621 -160v-12l-64 -274h-78v12l33 274h109z" />
    <glyph glyph-name="Ncaron" unicode="&#x147;" horiz-adv-x="1413" 
d="M1110 188v1205h100v-1393h-98l-803 1206h-4v-1206h-102v1393h98l805 -1205h4zM469 1759h106l140 -149l139 149h107v-10l-209 -225h-74l-209 225v10z" />
    <glyph glyph-name="ncaron" unicode="&#x148;" horiz-adv-x="1136" 
d="M608 926q-179 0 -338 -121v-805h-98v987h80l10 -90h4q54 42 148 82q94 39 202 39q357 0 357 -389v-629h-99v612q0 162 -65 238q-66 76 -201 76zM342 1425h104l142 -149l141 149h105v-10l-209 -225h-74l-209 225v10z" />
    <glyph glyph-name="napostrophe" unicode="&#x149;" horiz-adv-x="1138" 
d="M610 926q-179 0 -338 -121v-805h-98v987h80l10 -90h4q95 74 236 109q53 12 114 12q357 0 357 -389v-629h-98v612q0 162 -66 238t-201 76zM195 1393v-13l-64 -274h-78v12l33 275h109z" />
    <glyph glyph-name="Eng" unicode="&#x14a;" horiz-adv-x="1413" 
d="M979 -436q-61 0 -115 16v92q51 -12 116 -12q130 0 130 178v162l-801 1206h-4v-1206h-102v1393h98l805 -1205h4v1205h100v-1520q0 -170 -57 -239.5t-174 -69.5z" />
    <glyph glyph-name="eng" unicode="&#x14b;" horiz-adv-x="1136" 
d="M745 -436q-62 0 -114 16v88q51 -12 112 -12q131 0 131 182v774q0 162 -65.5 238t-200.5 76q-179 0 -338 -121v-805h-98v987h80l10 -90h4q174 121 350 121t266.5 -98.5t90.5 -290.5v-756q0 -170 -55.5 -239.5t-172.5 -69.5z" />
    <glyph glyph-name="Omacron" unicode="&#x14c;" horiz-adv-x="1425" 
d="M268 175q-133 184 -133 519t133 524q148 205 446 205t443 -205q133 -184 133 -519t-133 -524q-147 -204 -445 -205q-297 -1 -444 205zM713 1325q-471 0 -471 -629q0 -448 244 -579q91 -49 227 -49q471 0 471 628t-471 629zM469 1608v92h489v-92h-489z" />
    <glyph glyph-name="omacron" unicode="&#x14d;" horiz-adv-x="1150" 
d="M795 974q239 -120 239 -480q0 -361 -239 -481q-87 -44 -219 -44q-244 0 -361 161q-100 138 -98 364q0 360 239 480q88 44 219 44t220 -44zM574 926q-196 0 -284 -136q-71 -106 -71 -297t71 -295q91 -137 285 -137q352 0 357 433q0 295 -180 394q-70 38 -178 38zM334 1221
v88h489v-88h-489z" />
    <glyph glyph-name="Obreve" unicode="&#x14e;" horiz-adv-x="1425" 
d="M268 175q-133 184 -133 519t133 524q148 205 446 205t443 -205q133 -184 133 -519t-133 -524q-147 -204 -445 -205q-297 -1 -444 205zM713 1325q-471 0 -471 -629q0 -448 244 -579q91 -49 227 -49q471 0 471 628t-471 629zM713 1655q90 0 132 32t70 70l54 -45
q-35 -61 -93 -104t-162 -43t-164 43q-58 43 -93 104l53 45q29 -39 71 -71t132 -31z" />
    <glyph glyph-name="obreve" unicode="&#x14f;" horiz-adv-x="1150" 
d="M795 974q239 -120 239 -480q0 -361 -239 -481q-87 -44 -219 -44q-244 0 -361 161q-100 138 -98 364q0 360 239 480q88 44 219 44t220 -44zM574 926q-196 0 -284 -136q-71 -106 -71 -297t71 -295q91 -137 285 -137q352 0 357 433q0 295 -180 394q-70 38 -178 38zM578 1255
q90 0 132 32t70 71l54 -41q-36 -61 -94 -105t-162 -43q-104 0 -163 43q-58 43 -93 105l53 41q29 -39 71 -71t132 -32z" />
    <glyph glyph-name="Ohungarumlaut" unicode="&#x150;" horiz-adv-x="1425" 
d="M268 175q-133 184 -133 519t133 524q148 205 446 205t443 -205q133 -184 133 -519t-133 -524q-147 -204 -445 -205q-297 -1 -444 205zM713 1325q-471 0 -471 -629q0 -448 244 -579q91 -49 227 -49q471 0 471 628t-471 629zM782 1524v10l99 225h114v-10l-121 -225h-92z
M524 1524v10l99 225h114v-10l-121 -225h-92z" />
    <glyph glyph-name="ohungarumlaut" unicode="&#x151;" horiz-adv-x="1150" 
d="M795 974q239 -120 239 -480q0 -361 -239 -481q-87 -44 -219 -44q-244 0 -361 161q-100 138 -98 364q0 360 239 480q88 44 219 44t220 -44zM574 926q-196 0 -284 -136q-71 -106 -71 -297t71 -295q91 -137 285 -137q352 0 357 433q0 295 -180 394q-70 38 -178 38zM664 1190
v10l98 225h110v-10l-120 -225h-88zM406 1190v10l98 225h110v-10l-120 -225h-88z" />
    <glyph glyph-name="OE" unicode="&#x152;" horiz-adv-x="1890" 
d="M713 1325q-471 0 -471 -628.5t471 -628.5q119 0 205 36v1182q-90 39 -205 39zM275 1226.5q140 196.5 438 196.5q117 0 209 -30h833v-97h-735v-532h674v-96h-674v-572h741v-96h-843q-104 -31 -233 -31q-128 0 -237.5 54.5t-211 196t-101.5 476t140 531z" />
    <glyph glyph-name="oe" unicode="&#x153;" horiz-adv-x="1896" 
d="M1380 926q-143 0 -236 -95.5t-110 -267.5h652q2 16 2 19v34q0 216 -115 263t-193 47zM219 493.5q0 -188.5 80.5 -310.5t276.5 -122q195 0 275.5 122t80.5 364t-125 310.5t-233 68.5t-176 -38t-123.5 -122t-55.5 -272.5zM117 494q0 360 163.5 442t294.5 82q318 0 410 -277
q51 127 151 202t224 75q216 0 323 -118.5t107 -289.5q0 -67 -14 -135h-744q6 -292 141.5 -353t232.5 -61t165.5 29t126.5 70l45 -78q-61 -45 -141 -79t-224 -34t-246 73t-149 196q-91 -269 -408 -269q-243 0 -350.5 148t-107.5 377z" />
    <glyph glyph-name="Racute" unicode="&#x154;" horiz-adv-x="1249" 
d="M664 733q332 0 331 283q0 137 -82 209t-249 71h-359v-563h359zM203 0v1393h473q204 -1 314 -97t110 -276t-100 -272t-267 -109l455 -625v-14h-119l-457 637h-307v-637h-102zM518 1524v10l98 225h115v-10l-121 -225h-92z" />
    <glyph glyph-name="racute" unicode="&#x155;" horiz-adv-x="671" 
d="M270 0h-98v987h78l12 -100h4q33 47 92 89t139 42t132 -14l-17 -93q-50 15 -120 15t-127 -48t-95 -110v-768zM334 1190v10l98 225h111v-10l-121 -225h-88z" />
    <glyph glyph-name="uni0156" unicode="&#x156;" horiz-adv-x="1249" 
d="M664 733q332 0 331 283q0 137 -82 209t-249 71h-359v-563h359zM203 0v1393h473q204 -1 314 -97t110 -276t-100 -272t-267 -109l455 -625v-14h-119l-457 637h-307v-637h-102zM670 -160v-12l-64 -274h-78v12l33 274h109z" />
    <glyph glyph-name="uni0157" unicode="&#x157;" horiz-adv-x="671" 
d="M270 0h-98v987h78l12 -100h4q33 47 92 89t139 42t132 -14l-17 -93q-50 15 -120 15t-127 -48t-95 -110v-768zM270 -160v-12l-63 -274h-78v12l33 274h108z" />
    <glyph glyph-name="Rcaron" unicode="&#x158;" horiz-adv-x="1249" 
d="M664 733q332 0 331 283q0 137 -82 209t-249 71h-359v-563h359zM203 0v1393h473q204 -1 314 -97t110 -276t-100 -272t-267 -109l455 -625v-14h-119l-457 637h-307v-637h-102zM334 1759h106l140 -149l139 149h106v-10l-209 -225h-73l-209 225v10z" />
    <glyph glyph-name="rcaron" unicode="&#x159;" horiz-adv-x="671" 
d="M270 0h-98v987h78l12 -100h4q33 47 92 89t139 42t132 -14l-17 -93q-50 15 -120 15t-127 -48t-95 -110v-768zM135 1425h105l141 -149l141 149h105v-10l-209 -225h-74l-209 225v10z" />
    <glyph glyph-name="Sacute" unicode="&#x15a;" horiz-adv-x="1071" 
d="M850 340q0 122 -69 186t-212 119l-139 53q-139 50 -216 138t-77 206q0 164 114 274q114 109 315 108q202 -1 366 -117l-47 -86q-152 104 -316 104q-165 0 -245 -80q-80 -79 -80 -183t53 -163t176 -106l135 -52q174 -67 261 -155t87 -243t-118 -265q-118 -109 -312 -109
t-341 99q-42 29 -79 57l54 86q66 -57 154 -100t222 -43q132 0 223 75q91 76 91 197zM500 1524v10l98 225h115v-10l-121 -225h-92z" />
    <glyph glyph-name="sacute" unicode="&#x15b;" horiz-adv-x="890" 
d="M684 238q0 76 -44 120q-44 45 -159 80l-123 37q-113 35 -174 94t-61 173t88 195t248 81t307 -70l-37 -88q-117 64 -251 65t-193 -51t-59 -124q0 -70 33 -112q34 -42 126 -69l123 -37q141 -41 210 -103q68 -61 68 -181t-94 -200t-260 -79q-112 0 -190 27t-144 67l45 82
q109 -84 287 -84q122 1 188 51t66 126zM424 1190v10l98 225h111v-10l-121 -225h-88z" />
    <glyph glyph-name="Scircumflex" unicode="&#x15c;" horiz-adv-x="1071" 
d="M850 340q0 122 -69 186t-212 119l-139 53q-139 50 -216 138t-77 206q0 164 114 274q114 109 315 108q202 -1 366 -117l-47 -86q-152 104 -316 104q-165 0 -245 -80q-80 -79 -80 -183t53 -163t176 -106l135 -52q174 -67 261 -155t87 -243t-118 -265q-118 -109 -312 -109
t-341 99q-42 29 -79 57l54 86q66 -57 154 -100t222 -43q132 0 223 75q91 76 91 197zM805 1524h-107l-139 149l-139 -149h-107v10l209 225h74l209 -225v-10z" />
    <glyph glyph-name="scircumflex" unicode="&#x15d;" horiz-adv-x="890" 
d="M684 238q0 76 -44 120q-44 45 -159 80l-123 37q-113 35 -174 94t-61 173t88 195t248 81t307 -70l-37 -88q-117 64 -251 65t-193 -51t-59 -124q0 -70 33 -112q34 -42 126 -69l123 -37q141 -41 210 -103q68 -61 68 -181t-94 -200t-260 -79q-112 0 -190 27t-144 67l45 82
q109 -84 287 -84q122 1 188 51t66 126zM717 1190h-105l-141 149l-141 -149h-105v10l209 225h74l209 -225v-10z" />
    <glyph glyph-name="Scedilla" unicode="&#x15e;" horiz-adv-x="1071" 
d="M500 -350q102 0 102 98q0 46 -36 62t-105 16l-8 10l34 135q-174 10 -302 97q-42 29 -79 57l54 86q66 -57 154 -100t222 -43q132 0 223 75t91 197t-69 186t-212 119l-139 53q-139 50 -216 138t-77 206q0 164 114 274q114 109 315 108q202 -1 366 -117l-47 -86
q-152 104 -316 104q-165 0 -245 -80q-80 -79 -80 -183t53 -163t176 -106l135 -52q174 -67 261 -155t87 -243t-110 -258q-110 -102 -269 -114l-22 -73q59 -6 104 -41t45 -119t-58 -129q-60 -45 -155 -45t-155 41l29 82q58 -37 135 -37z" />
    <glyph glyph-name="scedilla" unicode="&#x15f;" horiz-adv-x="890" 
d="M684 238q0 76 -44 120q-44 45 -159 80l-123 37q-113 35 -174 94t-61 173t88 195t248 81t307 -70l-37 -88q-117 64 -251 65t-193 -51t-59 -124q0 -70 33 -112q34 -42 126 -69l123 -37q141 -41 210 -103q68 -61 68 -181t-86 -193t-219 -84l-22 -73q59 -6 104 -41t45 -119
t-59 -129t-154 -45t-155 41l28 82q58 -37 135 -37q103 0 103 98q0 46 -36 62t-105 16l-9 10l34 134q-150 7 -292 93l45 82q109 -84 287 -84q122 1 188 51t66 126z" />
    <glyph glyph-name="Scaron" unicode="&#x160;" horiz-adv-x="1071" 
d="M850 340q0 122 -69 186t-212 119l-139 53q-139 50 -216 138t-77 206q0 164 114 274q114 109 315 108q202 -1 366 -117l-47 -86q-152 104 -316 104q-165 0 -245 -80q-80 -79 -80 -183t53 -163t176 -106l135 -52q174 -67 261 -155t87 -243t-118 -265q-118 -109 -312 -109
t-341 99q-42 29 -79 57l54 86q66 -57 154 -100t222 -43q132 0 223 75q91 76 91 197zM313 1759h107l139 -149l139 149h107v-10l-209 -225h-74l-209 225v10z" />
    <glyph glyph-name="scaron" unicode="&#x161;" horiz-adv-x="890" 
d="M684 238q0 76 -44 120q-44 45 -159 80l-123 37q-113 35 -174 94t-61 173t88 195t248 81t307 -70l-37 -88q-117 64 -251 65t-193 -51t-59 -124q0 -70 33 -112q34 -42 126 -69l123 -37q141 -41 210 -103q68 -61 68 -181t-94 -200t-260 -79q-112 0 -190 27t-144 67l45 82
q109 -84 287 -84q122 1 188 51t66 126zM223 1425h105l141 -149l141 149h105v-10l-209 -225h-74l-209 225v10z" />
    <glyph glyph-name="uni0162" unicode="&#x162;" horiz-adv-x="1064" 
d="M494 -350q102 0 102 98q0 46 -36 62t-105 16l-9 10l42 164h-7v1296h-418v97h938v-97h-417v-1296h-5l-30 -102q59 -6 104 -41t45 -119t-59 -129t-154 -45t-155 41l28 82q58 -37 136 -37z" />
    <glyph glyph-name="uni0163" unicode="&#x163;" horiz-adv-x="630" 
d="M358 -350q103 0 103 98q0 46 -36 62t-106 16l-8 10l37 145q-42 14 -69 47q-49 58 -50 162v709h-176v72l176 16v230h99v-230h239v-88h-239v-713q0 -125 108 -125q70 0 133 23v-90q-72 -25 -134 -25l-21 -71q59 -6 104 -41t45 -119t-59 -129t-154 -45t-155 41l28 82
q58 -37 135 -37z" />
    <glyph glyph-name="Tcaron" unicode="&#x164;" horiz-adv-x="1064" 
d="M1001 1393v-97h-417v-1296h-103v1296h-418v97h938zM291 1759h106l140 -149l139 149h106v-10l-209 -225h-73l-209 225v10z" />
    <glyph glyph-name="tcaron" unicode="&#x165;" horiz-adv-x="628" 
d="M410 -31q-84 1 -134 59t-49 162v709h-176v72l176 16v230h99v-230h239v-88h-239v-713q0 -125 108 -125q70 0 133 23v-90q-73 -25 -157 -25zM651 1393v-13l-63 -274h-78v12l33 275h108z" />
    <glyph glyph-name="Tbar" unicode="&#x166;" horiz-adv-x="1064" 
d="M1001 1393v-97h-417v-510h245v-96h-245v-690h-103v690h-243v96h243v510h-418v97h938z" />
    <glyph glyph-name="tbar" unicode="&#x167;" horiz-adv-x="634" 
d="M414 -31q-84 0 -133.5 58.5t-49.5 162.5v340h-131v88h131v281h-176v72l176 16v230h99v-230h239v-88h-239v-281h198v-88h-198v-344q0 -125 108 -125q70 0 133 23v-90q-73 -25 -157 -25z" />
    <glyph glyph-name="Utilde" unicode="&#x168;" horiz-adv-x="1392" 
d="M295 1393v-899q0 -203 105 -315q106 -111 296 -111t296 111q105 112 106 315v899h102v-910q0 -237 -129 -375t-375 -138t-374 138q-128 140 -129 375v910h102zM808 1647q53 0 103 71l47 -59q-67 -102 -159 -100q-45 0 -93 27q-46 28 -70 40t-50 12q-52 0 -105 -71l-47 59
q67 102 160 100q43 0 91 -27q49 -27 73 -39t50 -13z" />
    <glyph glyph-name="utilde" unicode="&#x169;" horiz-adv-x="1120" 
d="M164 358v629h98v-612q0 -162 62 -238t196 -76q174 0 330 121v805h98v-987h-80l-10 90h-4q-151 -118 -340 -121q-350 0 -350 389zM453 1354q44 0 112 -40q67 -40 97 -40q56 0 108 74l47 -60q-66 -100 -160 -98q-47 0 -113 39t-91 41q-60 0 -113 -74l-47 59q65 99 160 99z
" />
    <glyph glyph-name="Umacron" unicode="&#x16a;" horiz-adv-x="1392" 
d="M295 1393v-899q0 -203 105 -315q106 -111 296 -111t296 111q105 112 106 315v899h102v-910q0 -237 -129 -375t-375 -138t-374 138q-128 140 -129 375v910h102zM453 1608v92h489v-92h-489z" />
    <glyph glyph-name="umacron" unicode="&#x16b;" horiz-adv-x="1120" 
d="M164 358v629h98v-612q0 -162 62 -238t196 -76q174 0 330 121v805h98v-987h-80l-10 90h-4q-151 -118 -340 -121q-350 0 -350 389zM311 1221v88h490v-88h-490z" />
    <glyph glyph-name="Ubreve" unicode="&#x16c;" horiz-adv-x="1392" 
d="M295 1393v-899q0 -203 105 -315q106 -111 296 -111t296 111q105 112 106 315v899h102v-910q0 -237 -129 -375t-375 -138t-374 138q-128 140 -129 375v910h102zM696 1655q90 0 132 32t71 70l53 -45q-35 -61 -93 -104q-59 -43 -163 -43t-162 43t-94 104l54 45
q28 -39 70 -71t132 -31z" />
    <glyph glyph-name="ubreve" unicode="&#x16d;" horiz-adv-x="1120" 
d="M164 358v629h98v-612q0 -162 62 -238t196 -76q174 0 330 121v805h98v-987h-80l-10 90h-4q-151 -118 -340 -121q-350 0 -350 389zM555 1255q90 0 132 32t71 71l53 -41q-35 -61 -93 -105t-162 -43q-104 0 -164 43q-58 43 -93 105l53 41q29 -39 71 -71t132 -32z" />
    <glyph glyph-name="Uring" unicode="&#x16e;" horiz-adv-x="1392" 
d="M295 1393v-899q0 -203 105 -315q106 -111 296 -111t296 111q105 112 106 315v899h102v-910q0 -237 -129 -375t-375 -138t-374 138q-128 140 -129 375v910h102zM528 1669q0 74 47 118t121 44t121 -44t47 -118t-47 -118t-121 -44t-121 44t-47 118zM602 1669q0 -43 26 -67
t68 -23q42 0 69 24q26 25 26 67t-26 66t-69 24q-42 0 -68 -24t-26 -67z" />
    <glyph glyph-name="uring" unicode="&#x16f;" horiz-adv-x="1120" 
d="M164 358v629h98v-612q0 -162 62 -238t196 -76q174 0 330 121v805h98v-987h-80l-10 90h-4q-151 -118 -340 -121q-350 0 -350 389zM385 1274q0 74 47 118t121 44t121 -44t47 -118t-47 -118t-121 -44t-121 44t-47 118zM459 1274q-1 -43 25 -67q26 -23 69 -23t69 24t25 66
q1 42 -25 66t-69 24t-69 -24t-25 -66z" />
    <glyph glyph-name="Uhungarumlaut" unicode="&#x170;" horiz-adv-x="1392" 
d="M295 1393v-899q0 -203 105 -315q106 -111 296 -111t296 111q105 112 106 315v899h102v-910q0 -237 -129 -375t-375 -138t-374 138q-128 140 -129 375v910h102zM774 1524v10l98 225h115v-10l-121 -225h-92zM516 1524v10l98 225h115v-10l-121 -225h-92z" />
    <glyph glyph-name="uhungarumlaut" unicode="&#x171;" horiz-adv-x="1120" 
d="M164 358v629h98v-612q0 -162 62 -238t196 -76q174 0 330 121v805h98v-987h-80l-10 90h-4q-151 -118 -340 -121q-350 0 -350 389zM635 1190v10l98 225h111v-10l-121 -225h-88zM377 1190v10l98 225h111v-10l-121 -225h-88z" />
    <glyph glyph-name="Uogonek" unicode="&#x172;" horiz-adv-x="1392" 
d="M701 -436q-91 0 -137 50t-46 124q0 129 129 233q-225 12 -339.5 148.5t-114.5 363.5v910h102v-899q0 -203 105.5 -314.5t296 -111.5t296 111.5t105.5 314.5v899h102v-910q0 -211 -103.5 -345t-285.5 -161q-90 -27 -145.5 -85t-55.5 -146q0 -39 23.5 -67.5t84.5 -28.5
t134 47l14 -78q-74 -55 -165 -55z" />
    <glyph glyph-name="uogonek" unicode="&#x173;" horiz-adv-x="1120" 
d="M164 358v629h98v-612q0 -162 62 -238t196 -76q174 0 330 121v805h98v-987q-125 -84 -184 -137t-59 -117q-1 -36 23 -66t85 -30t133 47l15 -78q-74 -55 -162 -55t-135 48q-48 48 -48 110q-1 139 177 266q34 25 71 49l-6 53h-4q-151 -118 -340 -121q-350 0 -350 389z" />
    <glyph glyph-name="Wcircumflex" unicode="&#x174;" horiz-adv-x="1937" 
d="M57 1393h105l368 -1231h5l378 1231h111l379 -1231h4l369 1231h104v-13l-420 -1380h-108l-381 1243h-4l-381 -1243h-109l-420 1380v13zM1214 1524h-106l-139 149l-140 -149h-106v10l209 225h74l208 -225v-10z" />
    <glyph glyph-name="wcircumflex" unicode="&#x175;" horiz-adv-x="1642" 
d="M59 987h99l305 -850h4l303 850h102l304 -850h4l305 850h98v-12l-354 -975h-103l-303 864h-4l-303 -864h-102l-355 975v12zM1069 1190h-104l-142 149l-141 -149h-104v10l208 225h74l209 -225v-10z" />
    <glyph glyph-name="Ycircumflex" unicode="&#x176;" horiz-adv-x="1093" 
d="M1057 1393v-13l-459 -786v-594h-102v594l-459 786v13h113l395 -686h4l395 686h113zM795 1524h-107l-139 149l-139 -149h-107v10l209 225h74l209 -225v-10z" />
    <glyph glyph-name="ycircumflex" unicode="&#x177;" horiz-adv-x="970" 
d="M197 -344q65 0 114 54t78 130l62 164l-400 971v12h105l340 -852h6l311 852h100v-12l-421 -1143q-49 -129 -119 -199t-180 -69q-61 0 -127 18v90q66 -16 131 -16zM743 1190h-104l-141 149l-142 -149h-104v10l209 225h74l208 -225v-10z" />
    <glyph glyph-name="Ydieresis" unicode="&#x178;" horiz-adv-x="1093" 
d="M1057 1393v-13l-459 -786v-594h-102v594l-459 786v13h113l395 -686h4l395 686h113zM651 1640q0 35 23 59q22 23 56 23t56 -24t23 -58q0 -36 -23 -58q-22 -22 -56 -22t-56 23q-22 22 -23 57zM287 1640q0 35 22 59q23 23 57 23t56 -24t22 -58q0 -36 -22 -58t-56 -22t-57 23
q-22 22 -22 57z" />
    <glyph glyph-name="Zacute" unicode="&#x179;" horiz-adv-x="1034" 
d="M936 1393v-86l-727 -1207v-4h727v-96h-852v86l727 1206v4h-694v97h819zM463 1524v10l98 225h115v-10l-121 -225h-92z" />
    <glyph glyph-name="zacute" unicode="&#x17a;" horiz-adv-x="872" 
d="M774 987v-69l-559 -826v-4h559v-88h-688v66l561 829v4h-536v88h663zM397 1190v10l99 225h110v-10l-121 -225h-88z" />
    <glyph glyph-name="Zdotaccent" unicode="&#x17b;" horiz-adv-x="1034" 
d="M936 1393v-86l-727 -1207v-4h727v-96h-852v86l727 1206v4h-694v97h819zM455 1642q0 35 22 59q23 23 57 23t56 -24t22 -58q0 -36 -22 -58t-56 -22t-57 23q-22 22 -22 57z" />
    <glyph glyph-name="zdotaccent" unicode="&#x17c;" horiz-adv-x="872" 
d="M774 987v-69l-559 -826v-4h559v-88h-688v66l561 829v4h-536v88h663zM381 1282q1 34 23 58t56 24t56 -24t23 -58q0 -34 -23 -58q-22 -22 -56 -22t-56 22t-23 58z" />
    <glyph glyph-name="Zcaron" unicode="&#x17d;" horiz-adv-x="1034" 
d="M936 1393v-86l-727 -1207v-4h727v-96h-852v86l727 1206v4h-694v97h819zM297 1759h106l140 -149l139 149h106v-10l-208 -225h-74l-209 225v10z" />
    <glyph glyph-name="zcaron" unicode="&#x17e;" horiz-adv-x="872" 
d="M774 987v-69l-559 -826v-4h559v-88h-688v66l561 829v4h-536v88h663zM203 1425h104l142 -149l141 149h104v-10l-209 -225h-73l-209 225v10z" />
    <glyph glyph-name="florin" unicode="&#x192;" 
d="M964 1331q-81 0 -129.5 -41t-66.5 -145l-74 -424h260l-18 -88h-258l-135 -783q-25 -150 -98.5 -219t-231.5 -69q-67 0 -117 12l17 92q49 -12 129 -12t129 41t67 145l137 793h-237l14 88h240l72 414q25 151 101 219.5t185 68.5q110 0 160 -12l-16 -92q-49 12 -130 12z" />
    <glyph glyph-name="Aringacute" unicode="&#x1fa;" horiz-adv-x="1198" 
d="M556 1653v9l101 196h119v-9l-125 -196h-95zM600 1257l-283 -786h568l-283 786h-2zM436 1487q0 74 47 118t121 44t121 -44t47 -118q0 -112 -98 -150l489 -1337h-108l-135 377h-637l-136 -377h-108l490 1339q-93 41 -93 148zM510 1487q0 -43 26 -67t68 -24t69 24
q26 24 25 67q0 43 -26 67t-68 23q-42 1 -68 -23t-26 -67z" />
    <glyph glyph-name="aringacute" unicode="&#x1fb;" horiz-adv-x="1019" 
d="M741 487h-153q-303 0 -367 -122q-20 -41 -20 -97q0 -98 61 -152t162 -55q170 0 317 113v313zM877 -20q-106 0 -125 106h-4q-52 -45 -138 -81t-175 -36q-154 0 -248 81q-89 81 -89 228q0 297 475 295h168v60q-1 165 -75 229t-211 64t-258 -95l-45 74q131 113 321 113
q262 0 340 -210q27 -73 27 -175v-494q0 -37 12 -54t53 -17h56v-76q-48 -12 -84 -12zM469 1411v10l98 226h111v-11l-121 -225h-88zM343 1218q0 68 47 108t120 40t120 -40t47 -108t-47 -107q-47 -40 -120 -40t-120 40t-47 107zM417 1218q0 -80 93 -82q42 0 68 22t26 60t-25 60
t-69 22t-68 -22q-25 -22 -25 -60z" />
    <glyph glyph-name="AEacute" unicode="&#x1fc;" horiz-adv-x="1773" 
d="M801 500v770h-4l-428 -770h432zM1645 0h-844v406h-486l-225 -406h-113v10l785 1383h876v-97h-735v-532h674v-96h-674v-572h742v-96zM1151 1524v10l98 225h115v-10l-121 -225h-92z" />
    <glyph glyph-name="aeacute" unicode="&#x1fd;" horiz-adv-x="1685" 
d="M1475 596v25q0 133 -72 219t-221 86q-148 0 -232 -93t-100 -266h623q2 15 2 29zM588 481q-304 0 -367 -117q-20 -40 -20 -96q0 -98 61 -152t143 -54q159 -1 251 89t92 267v63h-160zM1577 614q0 -67 -14 -135h-715q7 -296 190 -386q66 -32 163 -32t162 29t122 70l45 -78
q-61 -45 -137 -79t-197 -34q-282 0 -393 244q-110 -242 -387 -244q-135 0 -229 81q-89 81 -89 228q0 291 475 289h175v66q0 228 -165 277q-50 15 -110 16q-156 0 -276 -95l-45 74q131 113 321 113q269 0 342 -223q111 221 361 223q199 0 300 -113q101 -114 101 -291z
M819 1190v10l99 225h110v-10l-121 -225h-88z" />
    <glyph glyph-name="Oslashacute" unicode="&#x1fe;" horiz-adv-x="1425" 
d="M1184 696q0 297 -107 453l-653 -991q113 -92 289 -90q471 0 471 628zM242 696q0 -318 116 -471l656 998q-110 102 -301 102q-471 0 -471 -629zM299 135q-164 183 -164 538q0 356 133 545q148 205 445 205q217 0 358 -114l84 129l78 -54l-94 -143q151 -190 151 -533
q0 -344 -133 -533q-147 -204 -444 -206q-207 0 -344 103l-78 -119l-78 51zM655 1524v10l99 225h114v-10l-120 -225h-93z" />
    <glyph glyph-name="oslashacute" unicode="&#x1ff;" horiz-adv-x="1150" 
d="M528 1190v10l99 225h110v-10l-121 -225h-88zM861 198q71 106 71 295q0 188 -74 300l-496 -672q78 -58 199 -59q212 -2 300 136zM290 790q-71 -106 -71 -302t82 -308l494 680q-85 64 -207 65q-209 2 -298 -135zM587 1018q143 0 265 -78l66 90l75 -55l-73 -98
q116 -140 114 -383q0 -362 -239 -481q-88 -44 -235 -44t-255 74l-67 -92l-66 51l70 96q-127 135 -125 396q0 360 239 480q88 44 231 44z" />
    <glyph glyph-name="uni0218" unicode="&#x218;" horiz-adv-x="1071" 
d="M850 340q0 122 -69 186t-212 119l-139 53q-139 50 -216 138t-77 206q0 164 114 274q114 109 315 108q202 -1 366 -117l-47 -86q-152 104 -316 104q-165 0 -245 -80q-80 -79 -80 -183t53 -163t176 -106l135 -52q174 -67 261 -155t87 -243t-118 -265q-118 -109 -312 -109
t-341 99q-42 29 -79 57l54 86q66 -57 154 -100t222 -43q132 0 223 75q91 76 91 197zM580 -160v-12l-64 -274h-78v12l33 274h109z" />
    <glyph glyph-name="uni0219" unicode="&#x219;" horiz-adv-x="890" 
d="M684 238q0 76 -44 120q-44 45 -159 80l-123 37q-113 35 -174 94t-61 173t88 195t248 81t307 -70l-37 -88q-117 64 -251 65t-193 -51t-59 -124q0 -70 33 -112q34 -42 126 -69l123 -37q141 -41 210 -103q68 -61 68 -181t-94 -200t-260 -79q-112 0 -190 27t-144 67l45 82
q109 -84 287 -84q122 1 188 51t66 126zM508 -160v-12l-64 -274h-77v12l32 274h109z" />
    <glyph glyph-name="uni021A" unicode="&#x21a;" horiz-adv-x="1064" 
d="M1001 1393v-97h-417v-1296h-103v1296h-418v97h938zM584 -160v-12l-64 -274h-78v12l33 274h109z" />
    <glyph glyph-name="uni021B" unicode="&#x21b;" horiz-adv-x="628" 
d="M410 -31q-84 1 -134 59t-49 162v709h-176v72l176 16v230h99v-230h239v-88h-239v-713q0 -125 108 -125q70 0 133 23v-90q-73 -25 -157 -25zM432 -160v-12l-63 -274h-78v12l33 274h108z" />
    <glyph glyph-name="uni0237" unicode="&#x237;" horiz-adv-x="442" 
d="M43 -436q-43 0 -115 16v88q51 -12 113 -12q131 0 131 182v1149h98v-1114q0 -170 -55 -239.5t-172 -69.5z" />
    <glyph glyph-name="circumflex" unicode="&#x2c6;" 
d="M850 1190h-105l-141 149l-141 -149h-105v10l209 225h74l209 -225v-10z" />
    <glyph glyph-name="caron" unicode="&#x2c7;" 
d="M358 1425h105l141 -149l141 149h105v-10l-209 -225h-74l-209 225v10z" />
    <glyph glyph-name="uni02C9" unicode="&#x2c9;" 
d="M356 1241v88h490v-88h-490z" />
    <glyph glyph-name="breve" unicode="&#x2d8;" 
d="M602 1255q90 0 132 32t71 71l53 -41q-35 -61 -93 -104.5t-162.5 -43.5t-163 43t-93.5 105l53 41q29 -39 71 -71t132 -32z" />
    <glyph glyph-name="dotaccent" unicode="&#x2d9;" 
d="M520 1282q0 35 22.5 58.5t56.5 23.5t56.5 -23.5t22.5 -58.5t-22.5 -57.5t-56.5 -22.5t-56.5 22.5t-22.5 57.5z" />
    <glyph glyph-name="ring" unicode="&#x2da;" 
d="M436 1274q0 74 47 118t121 44t121 -44t47 -118t-47 -118t-121 -44t-121 44t-47 118zM510 1274q0 -43 25.5 -66.5t68.5 -23.5t68.5 23.5t25.5 66.5t-25.5 66.5t-68.5 23.5t-68.5 -23.5t-25.5 -66.5z" />
    <glyph glyph-name="ogonek" unicode="&#x2db;" 
d="M430 -278q0 104 76.5 180.5t208.5 158.5l47 -61q-125 -84 -184.5 -137t-59.5 -117q0 -35 23.5 -65.5t84.5 -30.5t134 47l14 -78q-74 -55 -162 -55t-135 48t-47 110z" />
    <glyph glyph-name="tilde" unicode="&#x2dc;" 
d="M502 1354q45 0 110.5 -40t97.5 -40q56 0 109 74l47 -60q-65 -98 -159 -98q-44 0 -92 27.5t-71.5 40t-49.5 12.5q-49 0 -105 -74l-47 59q65 99 160 99z" />
    <glyph glyph-name="hungarumlaut" unicode="&#x2dd;" 
d="M625 1190v10l98 225h111v-10l-121 -225h-88zM367 1190v10l98 225h110v-10l-120 -225h-88z" />
    <glyph glyph-name="tonos" unicode="&#x384;" 
d="M588 1165v11l51 266h106v-10l-83 -267h-74z" />
    <glyph glyph-name="dieresistonos" unicode="&#x385;" 
d="M825 1282q0 35 22.5 58.5t56.5 23.5t56.5 -23.5t22.5 -58.5t-22.5 -57.5t-56.5 -22.5t-56.5 22.5t-22.5 57.5zM299 1282q0 35 22.5 58.5t56.5 23.5t56.5 -23.5t22.5 -58.5t-22.5 -57.5t-56.5 -22.5t-56.5 22.5t-22.5 57.5zM573 1165v11l52 266h106v-10l-84 -267h-74z" />
    <glyph glyph-name="Alphatonos" unicode="&#x386;" horiz-adv-x="1236" 
d="M635 1257l-283 -786h568l-283 786h-2zM1198 0h-108l-136 377h-637l-135 -377h-108l510 1393h104zM172 1116v10l51 267h105v-11l-84 -266h-72z" />
    <glyph glyph-name="anoteleia" unicode="&#x387;" horiz-adv-x="503" 
d="M162 592q0 42 26 66t64 24t64 -25t26 -65t-26 -66q-26 -24 -64 -24t-65 24q-25 25 -25 66z" />
    <glyph glyph-name="Epsilontonos" unicode="&#x388;" horiz-adv-x="1316" 
d="M1182 1393v-97h-736v-532h674v-96h-674v-572h742v-96h-844v1393h838zM51 1116v10l51 267h105v-11l-84 -266h-72z" />
    <glyph glyph-name="Etatonos" unicode="&#x389;" horiz-adv-x="1536" 
d="M1231 668h-797v-668h-102v1393h102v-629h797v629h102v-1393h-102v668zM51 1116v10l51 267h105v-11l-84 -266h-72z" />
    <glyph glyph-name="Iotatonos" unicode="&#x38a;" horiz-adv-x="643" 
d="M440 0h-100v1393h100v-1393zM51 1116v10l51 267h105v-11l-84 -266h-72z" />
    <glyph glyph-name="Omicrontonos" unicode="&#x38c;" horiz-adv-x="1525" 
d="M1391 696q0 -517 -313 -672q-110 -54 -266 -54q-297 -1 -443 205q-135 187 -133 521q0 518 312 673q110 54 266 54q298 0 443 -205q134 -186 134 -522zM813 1325q-471 -1 -471 -629t471 -628q254 0 372 183q101 159 99 445q0 629 -471 629zM68 1116v10l51 267h104v-11
l-84 -266h-71z" />
    <glyph glyph-name="Upsilontonos" unicode="&#x38e;" horiz-adv-x="1370" 
d="M1333 1393v-13l-459 -786v-594h-102v594l-459 786v13h113l395 -686h4l396 686h112zM76 1116v10l51 267h104v-11l-84 -266h-71z" />
    <glyph glyph-name="Omegatonos" unicode="&#x38f;" horiz-adv-x="1523" 
d="M686 0h-410v96h263q-200 185 -264 453q-54 225 8 470t271 350q107 54 263 54q291 0 438 -198q129 -171 127 -459q0 -405 -286 -670h262v-96h-410v88q328 240 328 678q0 387 -230 511q-88 48 -228 48t-229 -48q-168 -91 -211 -306q-19 -100 -20 -205q0 -438 328 -678v-88z
M68 1116v10l51 267h104v-11l-84 -266h-71z" />
    <glyph glyph-name="iotadieresistonos" unicode="&#x390;" horiz-adv-x="483" 
d="M340 -31q-164 0 -164 195v823h98v-813q0 -66 20 -90t60 -23q38 0 88 15v-90q-53 -17 -102 -17zM436 1282q0 34 23 58t57 24t56 -24t22 -58t-23 -58q-23 -22 -57 -22t-56 22t-22 58zM-90 1282q0 34 22 58t57 24t57 -24t22 -58t-23 -58q-23 -22 -57 -22t-56 22t-22 58z
M184 1165v11l52 266h106v-10l-84 -267h-74z" />
    <glyph glyph-name="Alpha" unicode="&#x391;" horiz-adv-x="1202" 
d="M600 1257l-283 -786h568l-283 786h-2zM1163 0h-108l-135 377h-637l-136 -377h-108l510 1393h104z" />
    <glyph glyph-name="Beta" unicode="&#x392;" horiz-adv-x="1224" 
d="M944 1026q0 270 -336 270h-303v-538h303q239 0 310 136q27 52 26 132zM616 1393q313 0 403 -194q32 -69 32 -152q0 -197 -131 -288q-37 -26 -74 -40v-4q114 -29 184 -114t70 -205q0 -305 -273 -374q-82 -22 -174 -22h-450v1393h413zM305 662v-566h336q244 0 324 149
q29 54 28 134q0 278 -348 283h-340z" />
    <glyph glyph-name="Gamma" unicode="&#x393;" horiz-adv-x="1026" 
d="M203 0v1393h764v-97h-662v-1296h-102z" />
    <glyph glyph-name="uni0394" unicode="&#x394;" horiz-adv-x="1206" 
d="M1165 0h-1120v10l508 1383h104l508 -1383v-10zM604 1266l-426 -1172h854l-426 1172h-2z" />
    <glyph glyph-name="Epsilon" unicode="&#x395;" horiz-adv-x="1175" 
d="M1040 1393v-97h-735v-532h674v-96h-674v-572h742v-96h-844v1393h837z" />
    <glyph glyph-name="Zeta" unicode="&#x396;" horiz-adv-x="1034" 
d="M936 1393v-86l-727 -1207v-4h727v-96h-852v86l727 1206v4h-694v97h819z" />
    <glyph glyph-name="Eta" unicode="&#x397;" horiz-adv-x="1406" 
d="M1102 668h-797v-668h-102v1393h102v-629h797v629h102v-1393h-102v668z" />
    <glyph glyph-name="Theta" unicode="&#x398;" horiz-adv-x="1425" 
d="M1290 696.5q0 -157.5 -31.5 -291t-101.5 -230.5t-179.5 -151.5t-265 -54.5t-265 54.5t-179 151.5t-101.5 230.5t-32 291t32 290.5t101.5 230.5t179 151.5t265 54t265 -54t179.5 -151.5t101.5 -230.5t31.5 -290.5zM713 1325q-471 0 -471 -628.5t471 -628.5t471 628.5
t-471 628.5zM461 668v96h514v-96h-514z" />
    <glyph glyph-name="Iota" unicode="&#x399;" horiz-adv-x="505" 
d="M303 0h-100v1393h100v-1393z" />
    <glyph glyph-name="Kappa" unicode="&#x39a;" horiz-adv-x="1118" 
d="M305 651v-651h-102v1393h102v-691h4l641 691h119v-13l-645 -696l684 -672v-12h-133l-666 651h-4z" />
    <glyph glyph-name="Lambda" unicode="&#x39b;" horiz-adv-x="1202" 
d="M147 0h-108l510 1393h104l510 -1393h-108l-453 1266h-2z" />
    <glyph glyph-name="Mu" unicode="&#x39c;" horiz-adv-x="1652" 
d="M1450 1393v-1393h-102v1180h-5l-473 -826h-88l-473 826h-4v-1180h-102v1393h96l524 -912h6l525 912h96z" />
    <glyph glyph-name="Nu" unicode="&#x39d;" horiz-adv-x="1413" 
d="M1110 188v1205h100v-1393h-98l-803 1206h-4v-1206h-102v1393h98l805 -1205h4z" />
    <glyph glyph-name="Xi" unicode="&#x39e;" horiz-adv-x="1159" 
d="M135 1296v97h883v-97h-883zM211 668v96h741v-96h-741zM1024 96v-96h-889v96h889z" />
    <glyph glyph-name="Omicron" unicode="&#x39f;" horiz-adv-x="1425" 
d="M268 175q-133 184 -133 519t133 524q148 205 446 205t443 -205q133 -184 133 -519t-133 -524q-147 -204 -445 -205q-297 -1 -444 205zM713 1325q-471 0 -471 -629q0 -448 244 -579q91 -49 227 -49q471 0 471 628t-471 629z" />
    <glyph glyph-name="Pi" unicode="&#x3a0;" horiz-adv-x="1406" 
d="M1102 1296h-797v-1296h-102v1393h1001v-1393h-102v1296z" />
    <glyph glyph-name="Rho" unicode="&#x3a1;" horiz-adv-x="1163" 
d="M305 676h318q342 0 342 310t-342 310h-318v-620zM203 0v1393h432q211 1 323 -103t113 -305q0 -201 -114 -303t-322 -102h-330v-580h-102z" />
    <glyph glyph-name="Sigma" unicode="&#x3a3;" horiz-adv-x="1077" 
d="M115 1393h864v-97h-735l372 -587l-407 -613h770v-96h-897v86l412 623l-379 598v86z" />
    <glyph glyph-name="Tau" unicode="&#x3a4;" horiz-adv-x="1064" 
d="M1001 1393v-97h-417v-1296h-103v1296h-418v97h938z" />
    <glyph glyph-name="Upsilon" unicode="&#x3a5;" horiz-adv-x="1093" 
d="M1057 1393v-13l-459 -786v-594h-102v594l-459 786v13h113l395 -686h4l395 686h113z" />
    <glyph glyph-name="Phi" unicode="&#x3a6;" horiz-adv-x="1503" 
d="M1296 700q0 207 -111.5 323.5t-381.5 131.5v-909q388 11 440.5 184.5t52.5 269.5zM803 0h-103v139q-310 11 -455 164.5t-145 394.5q0 379 217.5 465t382.5 92v138h103v-138q313 -11 456.5 -163t143.5 -394q0 -375 -217 -464t-383 -95v-139zM207 700q0 -206 113 -326
t380 -128v909q-391 -22 -442 -190.5t-51 -264.5z" />
    <glyph glyph-name="Chi" unicode="&#x3a7;" horiz-adv-x="1150" 
d="M1085 1393v-13l-442 -682l442 -686v-12h-112l-395 616h-5l-395 -616h-112v12l442 686l-442 682v13h114l393 -615h5l393 615h114z" />
    <glyph glyph-name="Psi" unicode="&#x3a8;" horiz-adv-x="1392" 
d="M748 0h-103v322q-262 2 -386 124.5t-124 348.5v598h103v-598q0 -176 94 -273.5t313 -99.5v971h103v-971q219 2 313 99t94 274v598h102v-598q0 -225 -123.5 -348t-385.5 -125v-322z" />
    <glyph glyph-name="uni03A9" unicode="&#x3a9;" horiz-adv-x="1413" 
d="M143 766q0 451 302 603q108 54 264 54q291 0 438 -198q127 -168 127 -472t-179 -538q-52 -68 -108 -119h262v-96h-409v88q327 239 327 678q0 387 -230 511q-89 48 -228 48t-229 -48q-168 -90 -211 -306q-19 -100 -19 -205q0 -438 328 -678v-88h-410v96h262
q-287 266 -287 670z" />
    <glyph glyph-name="Iotadieresis" unicode="&#x3aa;" horiz-adv-x="505" 
d="M303 0h-100v1393h100v-1393zM352 1640q0 35 23 59q23 23 57 23t56 -24t22 -58q0 -36 -23 -58t-57 -22t-56 23q-22 22 -22 57zM-12 1640q0 35 22 59q23 23 57 23q35 0 57 -24t22 -58q0 -36 -24 -58q-22 -22 -56 -22t-56 23q-22 22 -22 57z" />
    <glyph glyph-name="Upsilondieresis" unicode="&#x3ab;" horiz-adv-x="1093" 
d="M1057 1393v-13l-459 -786v-594h-102v594l-459 786v13h113l395 -686h4l395 686h113zM647 1640q0 35 23 59q22 23 56 23t56 -24t23 -58q0 -36 -23 -58q-22 -22 -56 -22t-56 23q-22 22 -23 57zM283 1640q0 35 22 59q23 23 57 23t56 -24t22 -58q0 -36 -22 -58t-57 -22
q-34 0 -56 23q-22 22 -22 57z" />
    <glyph glyph-name="alphatonos" unicode="&#x3ac;" horiz-adv-x="1196" 
d="M510 61q124 0 210 123q85 123 128 310q-68 294 -216 396q-52 36 -121 36t-124 -34q-164 -101 -164 -398t164 -399q55 -34 123 -34zM121 494q0 365 211 482q76 42 166 42t144 -25t98 -71q72 -75 151 -263h4l90 328h102l-143 -493l143 -494h-102l-90 328h-4
q-68 -170 -151 -264t-208 -95q-320 0 -391 323q-20 96 -20 202zM545 1165v11l51 266h106v-10l-84 -267h-73z" />
    <glyph glyph-name="epsilontonos" unicode="&#x3ad;" horiz-adv-x="960" 
d="M500 1165v11l51 266h106v-10l-84 -267h-73zM127 274q0 178 178 238v4q-59 20 -103 74t-44 124q0 212 193 277q67 23 162 23q151 0 327 -78l-33 -82q-71 29 -137 48q-66 20 -148 20q-211 1 -250 -118q-12 -38 -12 -83q0 -78 54 -121t159 -43h227v-88h-235q-104 0 -170 -46
t-66 -140q0 -221 281 -222q175 0 330 72l30 -80q-168 -84 -356 -84t-288 78q-99 78 -99 227z" />
    <glyph glyph-name="etatonos" unicode="&#x3ae;" horiz-adv-x="1136" 
d="M616 1018q357 0 357 -389v-1035h-99v1018q0 162 -65 238q-66 76 -201 76q-179 0 -338 -121v-805h-98v987h80l10 -90h4q174 121 350 121zM567 1165v11l51 266h107v-10l-84 -267h-74z" />
    <glyph glyph-name="iotatonos" unicode="&#x3af;" horiz-adv-x="483" 
d="M340 -31q-164 0 -164 195v823h98v-813q0 -66 20 -90t60 -23q38 0 88 15v-90q-53 -17 -102 -17zM195 1165v11l51 266h106v-10l-84 -267h-73z" />
    <glyph glyph-name="upsilondieresistonos" unicode="&#x3b0;" horiz-adv-x="1097" 
d="M479 1165v11l51 266h107v-10l-84 -267h-74zM973 473q-1 -252 -107 -378t-300 -126t-299 110t-105 363v545h98v-534q0 -201 72 -296t230 -95t234 100q74 100 74 341t-129 484h117q115 -262 115 -514z" />
    <glyph glyph-name="alpha" unicode="&#x3b1;" horiz-adv-x="1196" 
d="M223 493.5q0 -192.5 76 -312.5t219 -120q116 0 199.5 121t130.5 312q-68 294 -168 363t-169 69t-124 -34t-109.5 -120t-54.5 -278.5zM216 873.5q95 144.5 294 144.5t272.5 -137.5t108.5 -221.5h4l90 328h102l-143 -493l143 -494h-102l-90 328h-4q-68 -170 -151 -264.5
t-208 -94.5t-200.5 42t-143 145.5t-67.5 338t95 379z" />
    <glyph glyph-name="beta" unicode="&#x3b2;" horiz-adv-x="1132" 
d="M918 390q0 147 -83 238t-260 91h-110v88h110q117 0 175.5 76t58.5 193t-75 196.5t-207 79.5q-133 0 -195 -85t-62 -266v-833q142 -107 308 -107q98 0 154 24t121 91t65 214zM270 59v-465h-98v1407q0 233 94 338t269 105t275.5 -108.5t100.5 -248.5q0 -139 -54 -211.5
t-122 -101.5v-4q285 -62 285 -393q0 -185 -115 -296.5t-300 -111.5t-331 90h-4z" />
    <glyph glyph-name="gamma" unicode="&#x3b3;" horiz-adv-x="948" 
d="M504 -406h-98v420l-349 963v10h105l301 -854h4q166 271 228.5 514.5t74.5 339.5h102v-10q-64 -477 -368 -963v-420z" />
    <glyph glyph-name="delta" unicode="&#x3b4;" horiz-adv-x="1144" 
d="M932 442q0 68 -35 136.5t-87 126t-116.5 106.5t-122.5 92q-156 -68 -256 -190.5t-100 -288.5q0 -239 127 -301t230 -62t171 36t110 91.5t60.5 120.5t18.5 133zM430 1218q0 -54 45 -102.5t111.5 -100.5t257 -193t190.5 -390q0 -185 -116 -324t-349 -139t-344.5 131.5
t-111.5 323.5q0 273 148.5 388.5t234.5 152.5q-70 57 -119 115t-49 148t68.5 153t215.5 63q95 0 215 -25v-94q-148 27 -232 27q-83 0 -124 -40t-41 -94z" />
    <glyph glyph-name="epsilon" unicode="&#x3b5;" horiz-adv-x="960" 
d="M127 274q0 178 178 238v4q-59 20 -103 73t-44 125q0 139 88.5 219.5t255.5 80.5q168 0 338 -78l-33 -82q-72 29 -137.5 48.5t-147.5 19.5q-148 0 -205 -51t-57 -140q0 -174 213 -174h227v-88h-235q-104 0 -170 -46t-66 -140q0 -221 281 -222q175 0 330 72l30 -80
q-168 -84 -356 -84t-287.5 78t-99.5 227z" />
    <glyph glyph-name="zeta" unicode="&#x3b6;" horiz-adv-x="870" 
d="M666 -125q0 51 -42 82t-104.5 55.5t-241 88.5t-178.5 286q0 152 142 365t465 589v5h-572v88h701v-72q-370 -441 -468 -586t-131.5 -227t-33.5 -157t42 -124t104.5 -82.5t136 -58.5t136 -55.5t104.5 -74t42 -101.5q0 -158 -162 -236l-57 66q117 57 117 149z" />
    <glyph glyph-name="eta" unicode="&#x3b7;" horiz-adv-x="1136" 
d="M616 1018q176 0 266.5 -98.5t90.5 -290.5v-1035h-99v1018q0 162 -65.5 238t-200.5 76q-179 0 -338 -121v-805h-98v987h80l10 -90h4q174 121 350 121z" />
    <glyph glyph-name="theta" unicode="&#x3b8;" horiz-adv-x="1228" 
d="M614 1352q-281 0 -329.5 -233.5t-51.5 -362.5h760q-18 596 -379 596zM613 61q361 0 380 598h-760q7 -422 143 -510t237 -88zM614.5 1444q122.5 0 213 -52.5t150.5 -148.5t90 -232.5t30 -304t-30 -304t-90 -232.5t-150.5 -148.5t-213 -52.5t-213 52.5t-151 148.5
t-90 232.5t-29.5 304t29.5 304t90 232.5t151 148.5t213 52.5z" />
    <glyph glyph-name="iota" unicode="&#x3b9;" horiz-adv-x="483" 
d="M340 -31q-164 0 -164 195v823h98v-813q0 -66 21 -89.5t59 -23.5t88 15v-90q-53 -17 -102 -17z" />
    <glyph glyph-name="kappa" unicode="&#x3ba;" horiz-adv-x="923" 
d="M270 461v-461h-98v987h98v-471h4l465 471h121v-10l-485 -483l502 -484v-10h-127l-476 461h-4z" />
    <glyph glyph-name="lambda" unicode="&#x3bb;" horiz-adv-x="974" 
d="M217 1444q99 0 156.5 -62.5t111.5 -205.5l430 -1164v-12h-100l-313 852h-6l-338 -852h-105v12l400 971l-70 184q-35 91 -70.5 138t-91.5 47t-127 -17v90q72 19 123 19z" />
    <glyph glyph-name="uni03BC" unicode="&#x3bc;" horiz-adv-x="1128" 
d="M270 -406h-98v1393h98v-612q0 -162 62 -238t196 -76q174 0 330 121v805h98v-987h-79l-11 90h-4q-170 -118 -344 -120q-174 -1 -248 104v-480z" />
    <glyph glyph-name="nu" unicode="&#x3bd;" horiz-adv-x="950" 
d="M59 987h105l301 -868h4q168 273 229.5 522.5t73.5 345.5h102v-10q-66 -497 -368 -977h-98l-349 977v10z" />
    <glyph glyph-name="xi" unicode="&#x3be;" horiz-adv-x="909" 
d="M147 1038q0 205 175 303v5h-164v88h698v-88h-289q-160 0 -238.5 -90t-78.5 -218q0 -196 110.5 -241t190.5 -45h190v-88h-194q-166 0 -248 -77t-82 -208q0 -90 48 -140.5t119 -81t155 -50t154.5 -44t118.5 -65t48 -100.5q0 -164 -162 -238l-57 66q117 57 117 127.5t-48 96
t-119 45t-273.5 71.5t-202.5 307t239 336v4q-106 53 -156.5 129t-50.5 196z" />
    <glyph glyph-name="omicron" unicode="&#x3bf;" horiz-adv-x="1150" 
d="M795 974q239 -120 239 -480q0 -361 -239 -481q-87 -44 -219 -44q-244 0 -361 161q-100 138 -98 364q0 360 239 480q88 44 219 44t220 -44zM574 926q-196 0 -284 -136q-71 -106 -71 -297t71 -295q91 -137 285 -137q352 0 357 433q0 295 -180 394q-70 38 -178 38z" />
    <glyph glyph-name="pi" unicode="&#x3c0;" horiz-adv-x="1134" 
d="M920 -31q-164 0 -164 195v735h-414v-899h-98v899h-191v88h998v-88h-197v-725q0 -66 20.5 -89.5t57.5 -23.5t90 15v-90q-53 -17 -102 -17z" />
    <glyph glyph-name="rho" unicode="&#x3c1;" horiz-adv-x="1130" 
d="M160 -406v922q0 382 161.5 442t267.5 60q208 0 316.5 -145.5t108.5 -373.5t-112 -379t-324 -151q-179 0 -316 111h-4v-486h-98zM258 188q123 -127 308 -127t265 120.5t80 312.5q0 293 -119.5 362.5t-201.5 69.5q-160 0 -246 -95t-86 -309v-334z" />
    <glyph glyph-name="sigma1" unicode="&#x3c2;" horiz-adv-x="921" 
d="M717 -125q0 51 -45 87t-111.5 68.5t-145.5 70.5t-190.5 132.5t-111.5 298.5q0 203 118.5 344.5t329.5 141.5q173 0 301 -74l-35 -82q-122 64 -239 64t-182.5 -35t-128 -119t-62.5 -250q0 -225 245.5 -337t302 -171.5t56.5 -117.5q0 -163 -162 -236l-57 66q117 57 117 149
z" />
    <glyph glyph-name="sigma" unicode="&#x3c3;" horiz-adv-x="1165" 
d="M934 478q0 417 -356 417t-356.5 -353.5t123.5 -417t233 -63.5q356 0 356 417zM1036 479q0 -354 -163.5 -432t-351 -78t-295 141.5t-107.5 368.5q0 356 163.5 432t295.5 76h475v-88h-226v-4q209 -98 209 -416z" />
    <glyph glyph-name="tau" unicode="&#x3c4;" horiz-adv-x="866" 
d="M346 193v706h-307v88h764v-88h-359v-696q0 -72 27 -107t99 -35t141 25v-90q-73 -27 -158 -27q-207 0 -207 224z" />
    <glyph glyph-name="upsilon" unicode="&#x3c5;" horiz-adv-x="1097" 
d="M973 473q0 -252 -106.5 -378t-300.5 -126t-299 109.5t-105 363.5v545h98v-534q0 -201 71.5 -296.5t230.5 -95.5t233.5 100.5t74.5 341.5t-129 484h117q115 -262 115 -514z" />
    <glyph glyph-name="phi" unicode="&#x3c6;" horiz-adv-x="1302" 
d="M1079 498q0 214 -48 321t-173 107q-78 0 -120 -63.5t-42 -229.5v-572q383 20 383 437zM858 1018q324 0 324 -494q0 -281 -123 -411.5t-363 -141.5v-377h-98v377q-479 23 -479 533q0 222 147 483h117q-162 -233 -162 -483q0 -203 90 -316.5t287 -126.5v590q0 367 260 367z
" />
    <glyph glyph-name="chi" unicode="&#x3c7;" horiz-adv-x="929" 
d="M903 987v-12l-381 -682l381 -686v-13h-102l-334 609h-4l-334 -609h-102v13l381 686l-381 682v12h104l332 -606h4l332 606h104z" />
    <glyph glyph-name="psi" unicode="&#x3c8;" horiz-adv-x="1337" 
d="M1100 987q117 -266 117 -513t-132 -373t-362 -126v-381h-98v381q-463 0 -463 467v545h98v-534q0 -209 92 -298t273 -89v1368h98v-1368q194 0 292.5 96.5t98.5 305.5t-52 340.5t-79 178.5h117z" />
    <glyph glyph-name="omega" unicode="&#x3c9;" horiz-adv-x="1650" 
d="M874 432q0 -371 279 -371t279 428q0 154 -49.5 271t-135.5 217v10h107q118 -125 147 -272.5t29 -225.5q0 -266 -99.5 -393t-279.5 -127q-229 0 -324 230h-4q-94 -229 -323 -230q-182 0 -280.5 127t-98.5 372t70.5 363.5t105.5 155.5h106v-10q-86 -100 -135 -217t-49 -271
q0 -223 70.5 -325.5t210.5 -102.5q276 0 276 371v289h98v-289z" />
    <glyph glyph-name="iotadieresis" unicode="&#x3ca;" horiz-adv-x="483" 
d="M340 -31q-164 0 -164 195v823h98v-813q0 -66 20 -90t60 -23q38 0 88 15v-90q-53 -17 -102 -17zM334 1282q0 34 22 58t57 24t57 -24t22 -58t-23 -58q-23 -22 -57 -22t-56 22t-22 58zM-31 1282q0 34 23 58q22 24 56 24t56 -24t23 -58q0 -34 -23 -58q-22 -22 -56 -22t-56 22
t-23 58z" />
    <glyph glyph-name="upsilondieresis" unicode="&#x3cb;" horiz-adv-x="1097" 
d="M973 473q-1 -252 -107 -378t-300 -126t-299 110t-105 363v545h98v-534q0 -201 72 -296t230 -95t234 100q74 100 74 341t-129 484h117q115 -262 115 -514zM627 1282q1 34 23 58t56 24t56 -24t22 -58t-22 -58q-22 -22 -56 -22t-56 22t-23 58zM262 1282q0 34 23 58t57 24
t56 -24t22 -58t-23 -58q-23 -22 -57 -22t-56 22t-22 58z" />
    <glyph glyph-name="omicrontonos" unicode="&#x3cc;" horiz-adv-x="1150" 
d="M795 974q239 -120 239 -480q0 -361 -239 -481q-87 -44 -219 -44q-244 0 -361 161q-100 138 -98 364q0 360 239 480q88 44 219 44t220 -44zM574 926q-196 0 -284 -136q-71 -106 -71 -297t71 -295q91 -137 285 -137q352 0 357 433q0 295 -180 394q-70 38 -178 38zM547 1165
v11l51 266h107v-10l-84 -267h-74z" />
    <glyph glyph-name="upsilontonos" unicode="&#x3cd;" horiz-adv-x="1097" 
d="M461 1165v11l51 266h106v-10l-83 -267h-74zM973 473q-1 -252 -107 -378t-300 -126t-299 110t-105 363v545h98v-534q0 -201 72 -296t230 -95t234 100q74 100 74 341t-129 484h117q115 -262 115 -514z" />
    <glyph glyph-name="omegatonos" unicode="&#x3ce;" horiz-adv-x="1650" 
d="M1432 489q0 273 -185 488v10h107q72 -77 124 -211q52 -135 52 -287q0 -266 -99 -393t-280 -127q-229 0 -324 230h-4q-94 -229 -323 -230q-182 0 -281 127q-98 127 -98 371t109 430q32 53 67 90h106v-10q-86 -100 -135 -217t-49 -271q0 -223 71 -325t208 -102
q280 -1 278 370v289h98v-289q0 -369 277 -371q139 1 210 103t71 325zM815 1165v11l51 266h107v-10l-84 -267h-74z" />
    <glyph glyph-name="uni0400" unicode="&#x400;" horiz-adv-x="1175" 
d="M1040 1393v-97h-735v-532h674v-96h-674v-572h742v-96h-844v1393h837zM469 1759h115l98 -225v-10h-92l-121 225v10z" />
    <glyph glyph-name="uni0401" unicode="&#x401;" horiz-adv-x="1175" 
d="M1040 1393v-97h-735v-532h674v-96h-674v-572h742v-96h-844v1393h837zM723 1640q0 35 22 59q23 23 57 23t56 -24t23 -58q0 -36 -23 -58q-22 -22 -56 -22t-57 23q-22 22 -22 57zM358 1640q0 35 23 59q23 23 57 23t56 -24t22 -58q0 -36 -22 -58t-57 -22t-57 23
q-22 22 -22 57z" />
    <glyph glyph-name="uni0402" unicode="&#x402;" horiz-adv-x="1372" 
d="M479 733q216 78 396 78q179 0 294 -113t115 -333q0 -133 -53 -255t-184 -266l-70 64q166 185 183.5 293t17.5 182t-50 202t-276 128q-145 0 -373 -76v-637h-102v1296h-316v97h891v-97h-473v-563z" />
    <glyph glyph-name="uni0403" unicode="&#x403;" horiz-adv-x="1105" 
d="M1047 1393v-97h-742v-1296h-102v1393h844zM573 1524v10l99 225h114v-10l-120 -225h-93z" />
    <glyph glyph-name="uni0404" unicode="&#x404;" horiz-adv-x="1189" 
d="M135 696q0 526 224.5 626.5t397.5 100.5t335 -92l-39 -86q-145 80 -291 80q-266 0 -386.5 -146.5t-133.5 -426.5h661v-101h-661q17 -583 503 -583q165 0 308 79l39 -86q-163 -92 -336 -92q-324 0 -472.5 194t-148.5 533z" />
    <glyph glyph-name="uni0405" unicode="&#x405;" horiz-adv-x="1071" 
d="M850 340q0 122 -69 186t-212 119l-139 53q-139 50 -216 138t-77 206q0 164 114 274q114 109 315 108q202 -1 366 -117l-47 -86q-152 104 -316 104q-165 0 -245 -80q-80 -79 -80 -183t53 -163t176 -106l135 -52q174 -67 261 -155t87 -243t-118 -265q-118 -109 -312 -109
t-341 99q-42 29 -79 57l54 86q66 -57 154 -100t222 -43q132 0 223 75q91 76 91 197z" />
    <glyph glyph-name="uni0406" unicode="&#x406;" horiz-adv-x="505" 
d="M303 0h-100v1393h100v-1393z" />
    <glyph glyph-name="uni0407" unicode="&#x407;" horiz-adv-x="505" 
d="M303 0h-100v1393h100v-1393zM354 1640q0 35 23 59q23 23 57 23t56 -24t22 -58q0 -36 -23 -58t-57 -22t-56 23q-22 22 -22 57zM-10 1640q0 35 22 59q23 23 57 23q35 0 57 -24t22 -58q0 -36 -24 -58q-22 -22 -56 -22t-56 23q-22 22 -22 57z" />
    <glyph glyph-name="uni0408" unicode="&#x408;" horiz-adv-x="927" 
d="M631 1393h102v-1012q0 -197 -99 -305t-259 -107q-99 0 -185 43t-139 94l55 76q116 -116 269 -114q182 0 236 173q19 60 20 146v1006z" />
    <glyph glyph-name="uni0409" unicode="&#x409;" horiz-adv-x="1896" 
d="M1698 397q0 299 -346 299h-336v-600h336q245 0 295.5 105.5t50.5 195.5zM1352 793q452 -1 452 -397t-452 -396h-439v1296h-532l-27 -632q-19 -445 -77 -546.5t-116.5 -119.5t-137.5 -18v96q61 0 101 14t75.5 98t54.5 494l31 711h731v-600h336z" />
    <glyph glyph-name="uni040A" unicode="&#x40a;" horiz-adv-x="2004" 
d="M1124 96h336q247 0 296.5 105.5t49.5 194.5q0 166 -92.5 233t-253.5 67h-336v-600zM1460 793q453 -1 453 -397t-453 -396h-438v696h-717v-696h-102v1393h102v-600h717v600h102v-600h336z" />
    <glyph glyph-name="uni040B" unicode="&#x40b;" horiz-adv-x="1441" 
d="M1313 535v-535h-103v514q0 174 -72.5 259t-267.5 85t-385 -82v-776h-102v1296h-322v97h891v-97h-467v-422q194 82 466 82t317 -162.5t45 -258.5z" />
    <glyph glyph-name="uni040C" unicode="&#x40c;" horiz-adv-x="1118" 
d="M305 651v-651h-102v1393h102v-691h4l641 691h119v-13l-645 -696l684 -672v-12h-133l-666 651h-4zM532 1524v10l99 225h114v-10l-120 -225h-93z" />
    <glyph glyph-name="uni040D" unicode="&#x40d;" horiz-adv-x="1392" 
d="M1190 1393v-1393h-103v1206h-4l-782 -1206h-98v1393h100v-1205h4l785 1205h98zM526 1759h115l98 -225v-10h-92l-121 225v10z" />
    <glyph glyph-name="uni040E" unicode="&#x40e;" horiz-adv-x="1062" 
d="M141 0v96h66q81 0 147 43t115 168l37 92l-449 983v11h95l405 -889h6l373 889h100v-11l-473 -1101q-61 -138 -140 -209q-79 -72 -214 -72h-68zM569 1655q90 0 132 32t71 70l53 -45q-35 -61 -93 -104t-162 -43t-163 43q-58 43 -94 104l54 45q29 -39 71 -71t131 -31z" />
    <glyph glyph-name="uni040F" unicode="&#x40f;" horiz-adv-x="1386" 
d="M203 0v1393h102v-1297h776v1297h103v-1393h-432l-15 -289h-88l-14 289h-432z" />
    <glyph glyph-name="uni0410" unicode="&#x410;" horiz-adv-x="1202" 
d="M600 1257l-283 -786h568l-283 786h-2zM1163 0h-108l-135 377h-637l-136 -377h-108l510 1393h104z" />
    <glyph glyph-name="uni0411" unicode="&#x411;" 
d="M305 96h336q247 0 296.5 105.5t49.5 194.5q0 166 -92.5 233t-253.5 67h-336v-600zM641 793q453 -1 453 -397t-453 -396h-438v1393h827v-97h-725v-503h336z" />
    <glyph glyph-name="uni0412" unicode="&#x412;" horiz-adv-x="1224" 
d="M944 1026q0 270 -336 270h-303v-538h303q239 0 310 136q27 52 26 132zM616 1393q313 0 403 -194q32 -69 32 -152q0 -197 -131 -288q-37 -26 -74 -40v-4q114 -29 184 -114t70 -205q0 -305 -273 -374q-82 -22 -174 -22h-450v1393h413zM305 662v-566h336q244 0 324 149
q29 54 28 134q0 278 -348 283h-340z" />
    <glyph glyph-name="uni0413" unicode="&#x413;" horiz-adv-x="1105" 
d="M1047 1393v-97h-742v-1296h-102v1393h844z" />
    <glyph glyph-name="uni0414" unicode="&#x414;" horiz-adv-x="1312" 
d="M997 96v1200h-526l-39 -557q-26 -413 -94 -507.5t-109 -135.5h768zM1100 1393v-1297h88l-17 -385h-88l-14 289h-926l-14 -289h-88l-18 385h75q101 101 155.5 230.5t74.5 410.5l47 656h725z" />
    <glyph glyph-name="uni0415" unicode="&#x415;" horiz-adv-x="1175" 
d="M1040 1393v-97h-735v-532h674v-96h-674v-572h742v-96h-844v1393h837z" />
    <glyph glyph-name="uni0416" unicode="&#x416;" horiz-adv-x="1769" 
d="M936 651v-651h-102v651h-5l-665 -651h-133v12l688 672l-660 696v13h129l641 -691h5v691h102v-691h4l641 691h129v-13l-659 -696l688 -672v-12h-133l-666 651h-4z" />
    <glyph glyph-name="uni0417" unicode="&#x417;" horiz-adv-x="1087" 
d="M487 68q246 0 305.5 108.5t59.5 175.5q0 316 -350 316h-236v96h254q135 0 217 75.5t82 208.5t-86 205t-248 72t-325 -86l-37 86q169 98 373 98q205 0 317.5 -99t112.5 -284t-92.5 -244t-131.5 -73v-4q115 -29 185.5 -125t70.5 -212t-37.5 -188.5t-134.5 -148.5t-311 -76
t-393 117l43 88q170 -106 362 -106z" />
    <glyph glyph-name="uni0418" unicode="&#x418;" horiz-adv-x="1392" 
d="M1190 1393v-1393h-103v1206h-4l-782 -1206h-98v1393h100v-1205h4l785 1205h98z" />
    <glyph glyph-name="uni0419" unicode="&#x419;" horiz-adv-x="1392" 
d="M1190 1393v-1393h-103v1206h-4l-782 -1206h-98v1393h100v-1205h4l785 1205h98zM709 1655q90 0 132 32t70 70l54 -45q-35 -61 -93 -104t-163 -43q-104 0 -163 43q-58 43 -93 104l53 45q29 -39 71 -71t132 -31z" />
    <glyph glyph-name="uni041A" unicode="&#x41a;" horiz-adv-x="1138" 
d="M305 651v-651h-102v1393h102v-691h4l641 691h119v-13l-645 -696l684 -672v-12h-133l-666 651h-4z" />
    <glyph glyph-name="uni041B" unicode="&#x41b;" horiz-adv-x="1329" 
d="M1126 0h-102v1296h-643l-27 -632q-19 -445 -77 -546.5t-116.5 -119.5t-137.5 -18v96q61 0 101 14t75.5 98t54.5 494l31 711h841v-1393z" />
    <glyph glyph-name="uni041C" unicode="&#x41c;" horiz-adv-x="1652" 
d="M1450 1393v-1393h-102v1180h-5l-473 -826h-88l-473 826h-4v-1180h-102v1393h96l524 -912h6l525 912h96z" />
    <glyph glyph-name="uni041D" unicode="&#x41d;" horiz-adv-x="1406" 
d="M1102 668h-797v-668h-102v1393h102v-629h797v629h102v-1393h-102v668z" />
    <glyph glyph-name="uni041E" unicode="&#x41e;" horiz-adv-x="1425" 
d="M268 175q-133 184 -133 519t133 524q148 205 446 205t443 -205q133 -184 133 -519t-133 -524q-147 -204 -445 -205q-297 -1 -444 205zM713 1325q-471 0 -471 -629q0 -448 244 -579q91 -49 227 -49q471 0 471 628t-471 629z" />
    <glyph glyph-name="uni041F" unicode="&#x41f;" horiz-adv-x="1406" 
d="M1102 1296h-797v-1296h-102v1393h1001v-1393h-102v1296z" />
    <glyph glyph-name="uni0420" unicode="&#x420;" horiz-adv-x="1163" 
d="M305 676h318q342 0 342 310t-342 310h-318v-620zM203 0v1393h432q211 1 323 -103t113 -305q0 -201 -114 -303t-322 -102h-330v-580h-102z" />
    <glyph glyph-name="uni0421" unicode="&#x421;" horiz-adv-x="1187" 
d="M135 696q0 524 333 675q116 52 289 52t335 -92l-39 -86q-145 80 -294 80q-521 0 -517 -629q0 -628 503 -628q165 0 308 79l39 -86q-163 -92 -336 -92q-474 0 -586 429q-35 134 -35 298z" />
    <glyph glyph-name="uni0422" unicode="&#x422;" horiz-adv-x="1064" 
d="M1001 1393v-97h-417v-1296h-103v1296h-418v97h938z" />
    <glyph glyph-name="uni0423" unicode="&#x423;" horiz-adv-x="1062" 
d="M141 0v96h66q80 0 146.5 43t115.5 168l37 92l-449 983v11h95l405 -889h6l373 889h100v-11l-473 -1101q-61 -138 -140 -209.5t-214 -71.5h-68z" />
    <glyph glyph-name="uni0424" unicode="&#x424;" horiz-adv-x="1503" 
d="M1191 382q105 112 105 319t-112 323t-381 131v-909q266 8 388 136zM803 0h-103v139q-312 11 -464 174q-136 144 -136 385q0 378 321 506q114 45 279 51v138h103v-138q313 -11 465 -172q135 -142 135 -385q0 -377 -321 -507q-114 -46 -279 -52v-139zM700 1155
q-267 -15 -380 -131t-113 -323t112 -327t381 -128v909z" />
    <glyph glyph-name="uni0425" unicode="&#x425;" horiz-adv-x="1150" 
d="M1085 1393v-13l-442 -682l442 -686v-12h-112l-395 616h-5l-395 -616h-112v12l442 686l-442 682v13h114l393 -615h5l393 615h114z" />
    <glyph glyph-name="uni0426" unicode="&#x426;" horiz-adv-x="1396" 
d="M203 0v1393h102v-1297h776v1297h103v-1297h88l-17 -385h-88l-14 289h-950z" />
    <glyph glyph-name="uni0427" unicode="&#x427;" horiz-adv-x="1273" 
d="M569 375q-338 0 -383 162.5t-45 259.5v596h103v-576q0 -182 73.5 -263t267.5 -81t384 82v838h102v-1393h-102v457q-194 -82 -400 -82z" />
    <glyph glyph-name="uni0428" unicode="&#x428;" horiz-adv-x="2052" 
d="M203 0v1393h102v-1297h670v1297h102v-1297h670v1297h102v-1393h-1646z" />
    <glyph glyph-name="uni0429" unicode="&#x429;" horiz-adv-x="2062" 
d="M203 0v1393h102v-1297h670v1297h102v-1297h670v1297h102v-1297h88l-16 -385h-88l-14 289h-1616z" />
    <glyph glyph-name="uni042A" unicode="&#x42a;" horiz-adv-x="1333" 
d="M453 96h335q246 0 296.5 105.5t50.5 194.5q0 165 -93 232.5t-254 67.5h-335v-600zM788 793q453 -1 453 -397t-453 -396h-438v1296h-295v97h398v-600h335z" />
    <glyph glyph-name="uni042B" unicode="&#x42b;" horiz-adv-x="1634" 
d="M1432 0h-101v1393h101v-1393zM641 96q346 0 346 300q0 165 -102 240q-83 60 -244 60h-336v-600h336zM641 0h-438v1393h102v-600h336q453 -1 453 -397t-453 -396z" />
    <glyph glyph-name="uni042C" unicode="&#x42c;" horiz-adv-x="1185" 
d="M305 96h336q247 0 296.5 105.5t49.5 194.5q0 166 -92.5 233t-253.5 67h-336v-600zM641 793q453 -1 453 -397t-453 -396h-438v1393h102v-600h336z" />
    <glyph glyph-name="uni042D" unicode="&#x42d;" horiz-adv-x="1193" 
d="M438 1423q325 0 473 -194.5t148 -532.5q0 -524 -224.5 -625.5t-397.5 -101.5t-335 92l39 86q143 -79 291 -79q267 0 389.5 150.5t130.5 432.5h-661v101h661q-13 280 -133.5 426.5t-369.5 146.5q-163 0 -308 -80l-39 86q163 92 336 92z" />
    <glyph glyph-name="uni042E" unicode="&#x42e;" horiz-adv-x="1896" 
d="M1182 1325q-471 0 -471 -628.5t471 -628.5t471 628.5t-471 628.5zM1618 164q-141 -195 -435 -195q-295 0 -435 190t-144 509h-299v-668h-102v1393h102v-629h299q20 470 225 564.5t357 94.5t261 -54t210.5 -195.5t101.5 -478t-141 -531.5z" />
    <glyph glyph-name="uni042F" unicode="&#x42f;" horiz-adv-x="1249" 
d="M586 1296q-332 0 -332 -282t332 -281h358v563h-358zM944 0v637h-309l-455 -637h-119v14l455 625q-168 16 -267 108.5t-99 272.5t109.5 276.5t313.5 96.5h474v-1393h-103z" />
    <glyph glyph-name="uni0430" unicode="&#x430;" horiz-adv-x="1019" 
d="M741 487h-153q-303 0 -367 -122q-20 -41 -20 -97q0 -98 61 -152t162 -55q170 0 317 113v313zM877 -20q-106 0 -125 106h-4q-52 -45 -138 -81t-175 -36q-154 0 -248 81q-89 81 -89 228q0 297 475 295h168v60q-1 165 -75 229t-211 64t-258 -95l-45 74q131 113 321 113
q262 0 340 -210q27 -73 27 -175v-494q0 -37 12 -54t53 -17h56v-76q-48 -12 -84 -12z" />
    <glyph glyph-name="uni0431" unicode="&#x431;" horiz-adv-x="1206" 
d="M888 162q99 101 99 271t-99 272t-267.5 102t-267.5 -102.5t-99 -271.5q0 -170 99 -271t267.5 -101t267.5 101zM622 899q220 0 344 -126.5t124 -335.5t-129.5 -338.5t-339.5 -129.5q-334 0 -404 207t-70 350q0 325 65.5 511t268.5 288q94 50 285.5 83.5t255.5 47.5v-96
q-45 -12 -104.5 -18.5t-282.5 -40.5t-302 -214.5t-83 -394.5l4 -2q47 98 149.5 153.5t218.5 55.5z" />
    <glyph glyph-name="uni0432" unicode="&#x432;" horiz-adv-x="993" 
d="M270 547h217q104 0 171 38t67 138t-66.5 138t-169.5 38h-219v-352zM879 279q0 -279 -340 -279h-367v987h320q174 0 254.5 -61.5t80.5 -202.5q0 -64 -41 -128t-100 -83v-2q193 -48 193 -231zM270 88h269q111 0 174 43t63 143.5t-63.5 142.5t-173.5 42h-269v-371z" />
    <glyph glyph-name="uni0433" unicode="&#x433;" horiz-adv-x="866" 
d="M831 987v-88h-561v-899h-98v987h659z" />
    <glyph glyph-name="uni0434" unicode="&#x434;" horiz-adv-x="1054" 
d="M762 88v811h-371l-26 -348q-15 -203 -44.5 -282t-53 -114.5t-52.5 -66.5h547zM860 987v-899h92l-16 -334h-84l-10 246h-697l-12 -246h-80l-16 334h63q78 73 119.5 175.5t52.5 291.5l29 432h559z" />
    <glyph glyph-name="uni0435" unicode="&#x435;" horiz-adv-x="1079" 
d="M563 926q-143 0 -235 -96t-109 -267h649q2 15 2 29v24q0 218 -172 286q-57 24 -135 24zM973 614q0 -76 -15 -139h-741q7 -293 206 -383q69 -31 166 -31q154 0 292 99l45 -78q-62 -45 -142 -79t-202 -34q-231 0 -349 146q-119 146 -117 379q1 233 123 379q122 145 322 145
q199 0 306 -119q106 -119 106 -285z" />
    <glyph glyph-name="uni0436" unicode="&#x436;" horiz-adv-x="1404" 
d="M752 461v-461h-99v461h-4l-475 -461h-127v10l502 484l-486 483v10h121l465 -471h4v471h99v-471h4l465 471h120v-10l-485 -483l502 -484v-10h-127l-475 461h-4z" />
    <glyph glyph-name="uni0437" unicode="&#x437;" horiz-adv-x="940" 
d="M477 557q213 0 213 171q0 85 -54 139.5t-172 54.5t-183.5 -19.5t-137.5 -48.5l-32 82q170 78 338 78t256 -80t88 -209q0 -82 -44 -135t-104 -74v-4q178 -60 178 -238q0 -150 -99.5 -227.5t-287.5 -77.5t-356 84l31 80q155 -72 329 -72q281 0 281 222q0 94 -65.5 140
t-170.5 46h-235v88h227z" />
    <glyph glyph-name="uni0438" unicode="&#x438;" horiz-adv-x="1116" 
d="M944 987v-987h-98v821h-4l-566 -821h-104v987h98v-825h4l566 825h104z" />
    <glyph glyph-name="uni0439" unicode="&#x439;" horiz-adv-x="1116" 
d="M571 1255q90 0 132 32t71 71l53 -41q-35 -61 -93 -105t-162 -43q-104 0 -163 43q-58 43 -94 105l54 41q29 -39 71 -71t131 -32zM944 987v-987h-98v821h-4l-566 -821h-104v987h98v-825h4l566 825h104z" />
    <glyph glyph-name="uni043A" unicode="&#x43a;" horiz-adv-x="911" 
d="M270 461v-461h-98v987h98v-471h4l465 471h121v-10l-485 -483l502 -484v-10h-127l-476 461h-4z" />
    <glyph glyph-name="uni043B" unicode="&#x43b;" horiz-adv-x="1075" 
d="M805 899h-467l-14 -356q-16 -351 -62.5 -434.5t-96.5 -103t-124 -19.5v92q45 0 77 9t65 73.5t44 374.5l19 452h657v-987h-98v899z" />
    <glyph glyph-name="uni043C" unicode="&#x43c;" horiz-adv-x="1329" 
d="M1157 987v-987h-98v799h-4l-348 -539h-84l-349 539h-4v-799h-98v987h94l396 -616h6l395 616h94z" />
    <glyph glyph-name="uni043D" unicode="&#x43d;" horiz-adv-x="1126" 
d="M856 463h-586v-463h-98v987h98v-436h586v436h98v-987h-98v463z" />
    <glyph glyph-name="uni043E" unicode="&#x43e;" horiz-adv-x="1150" 
d="M795 974q239 -120 239 -480q0 -361 -239 -481q-87 -44 -219 -44q-244 0 -361 161q-100 138 -98 364q0 360 239 480q88 44 219 44t220 -44zM574 926q-196 0 -284 -136q-71 -106 -71 -297t71 -295q91 -137 285 -137q352 0 357 433q0 295 -180 394q-70 38 -178 38z" />
    <glyph glyph-name="uni043F" unicode="&#x43f;" horiz-adv-x="1126" 
d="M856 899h-586v-899h-98v987h782v-987h-98v899z" />
    <glyph glyph-name="uni0440" unicode="&#x440;" horiz-adv-x="1130" 
d="M600 61q309 1 309 433t-309 432q-98 0 -186 -38t-144 -100v-589q56 -61 144 -99t186 -39zM1012 494q0 -365 -213 -483q-76 -42 -193 -42q-116 0 -194 35t-138 82h-4v-492h-98v1393h80l10 -90h4q147 121 350 121t306 -155q90 -136 90 -369z" />
    <glyph glyph-name="uni0441" unicode="&#x441;" horiz-adv-x="962" 
d="M866 43q-126 -72 -320 -73t-311 145q-118 147 -118 379q1 233 117 378q116 146 331 146q173 0 301 -74l-35 -82q-118 62 -277 63q-160 1 -246 -120t-88 -309q-1 -187 86 -311t246 -124q158 0 279 64z" />
    <glyph glyph-name="uni0442" unicode="&#x442;" horiz-adv-x="819" 
d="M780 987v-88h-321v-899h-99v899h-321v88h741z" />
    <glyph glyph-name="uni0443" unicode="&#x443;" horiz-adv-x="970" 
d="M197 -344q65 0 114 54t78 130l62 164l-400 971v12h105l340 -852h6l311 852h100v-12l-421 -1143q-49 -129 -119 -199t-180 -69q-61 0 -127 18v90q66 -16 131 -16z" />
    <glyph glyph-name="uni0444" unicode="&#x444;" horiz-adv-x="1740" 
d="M223 493.5q0 -432.5 289 -432.5q90 0 172 33t137 94v611q-55 61 -137 94t-172 33q-289 0 -289 -432.5zM1518 493.5q0 432.5 -289 432.5q-90 0 -172 -33t-137 -94v-611q55 -61 137 -94t172 -33q289 0 289 432.5zM500 1018q189 0 321 -109v525h99v-525q128 109 322 109
q195 0 286.5 -143t91.5 -381q0 -365 -136 -445t-247 -80t-182.5 30t-130.5 77h-4v-482h-99v482h-4q-59 -47 -131 -77t-182 -30q-204 0 -293.5 144.5t-89.5 380.5q0 366 136 445t243 79z" />
    <glyph glyph-name="uni0445" unicode="&#x445;" horiz-adv-x="933" 
d="M74 0v12l327 482l-327 481v12h108l283 -424h4l283 424h108v-12l-328 -481l328 -482v-12h-108l-283 420h-4l-283 -420h-108z" />
    <glyph glyph-name="uni0446" unicode="&#x446;" horiz-adv-x="1148" 
d="M172 0v987h98v-899h586v899h98v-901h93l-17 -332h-84l-10 246h-764z" />
    <glyph glyph-name="uni0447" unicode="&#x447;" horiz-adv-x="1017" 
d="M444 266q-327 0 -327 322v399h98v-391q0 -123 56.5 -180.5t196.5 -57.5t280 52v577h98v-987h-98v324q-170 -58 -304 -58z" />
    <glyph glyph-name="uni0448" unicode="&#x448;" horiz-adv-x="1622" 
d="M172 0v987h98v-899h492v899h98v-899h492v899h98v-987h-1278z" />
    <glyph glyph-name="uni0449" unicode="&#x449;" horiz-adv-x="1644" 
d="M172 0v987h98v-899h492v899h98v-899h492v899h98v-901h92l-16 -332h-84l-10 246h-1260z" />
    <glyph glyph-name="uni044A" unicode="&#x44a;" horiz-adv-x="1054" 
d="M881 288.5q0 200.5 -256 200.5h-252v-401h252q256 0 256 200.5zM47 987h326v-409h264q164 0 251 -74t87 -215.5t-88 -215t-250 -73.5h-363v899h-227v88z" />
    <glyph glyph-name="uni044B" unicode="&#x44b;" horiz-adv-x="1284" 
d="M522 88q256 0 256 200t-256 201h-252v-401h252zM172 987h98v-409h265q165 0 251 -74t86 -215t-88 -215t-249 -74h-363v987zM1014 0v987h98v-987h-98z" />
    <glyph glyph-name="uni044C" unicode="&#x44c;" horiz-adv-x="952" 
d="M778 288.5q0 200.5 -256 200.5h-252v-401h252q256 0 256 200.5zM172 987h98v-409h265q164 0 250.5 -74t86.5 -215.5t-88 -215t-249 -73.5h-363v987z" />
    <glyph glyph-name="uni044D" unicode="&#x44d;" horiz-adv-x="966" 
d="M401 1018q214 0 331.5 -144.5t117.5 -380t-117.5 -380t-331.5 -144.5q-171 0 -301 74l35 82q122 -64 273 -64t239.5 109t97.5 281h-499v88h499q-20 268 -140 327.5t-204 59.5q-142 0 -266 -64l-35 82q130 74 301 74z" />
    <glyph glyph-name="uni044E" unicode="&#x44e;" horiz-adv-x="1540" 
d="M608 493.5q0 -188.5 80 -310.5t276 -122q195 0 276 122t81 364t-124.5 310.5t-232.5 68.5t-176.5 -38t-124 -122t-55.5 -272.5zM1315.5 117.5q-107.5 -148.5 -345.5 -148.5t-349 137.5t-115 356.5h-236v-463h-98v987h98v-436h238q21 326 177.5 396.5t283.5 70.5t215 -44
t163.5 -148t75.5 -332t-107.5 -376.5z" />
    <glyph glyph-name="uni044F" unicode="&#x44f;" horiz-adv-x="1052" 
d="M778 899h-311q-117 0 -171 -56.5t-54 -142.5t54 -141t171 -55h311v395zM778 0v416h-241l-357 -416h-112v10l352 410q-133 12 -207 87t-74 201t87 202.5t229 76.5h426v-987h-103z" />
    <glyph glyph-name="uni0450" unicode="&#x450;" horiz-adv-x="1079" 
d="M563 926q-143 0 -235 -96t-109 -267h649q2 15 2 29v24q0 218 -172 286q-57 24 -135 24zM973 614q0 -76 -15 -139h-741q7 -293 206 -383q69 -31 166 -31q154 0 292 99l45 -78q-62 -45 -142 -79t-202 -34q-231 0 -349 146q-119 146 -117 379q1 233 123 379q122 145 322 145
q199 0 306 -119q106 -119 106 -285zM414 1425h110l99 -225v-10h-88l-121 225v10z" />
    <glyph glyph-name="uni0451" unicode="&#x451;" horiz-adv-x="1079" 
d="M563 926q-143 0 -235 -96t-109 -267h649q2 15 2 29v24q0 218 -172 286q-57 24 -135 24zM973 614q0 -76 -15 -139h-741q7 -293 206 -383q69 -31 166 -31q154 0 292 99l45 -78q-62 -45 -142 -79t-202 -34q-231 0 -349 146q-119 146 -117 379q1 233 123 379q122 145 322 145
q199 0 306 -119q106 -119 106 -285zM678 1282q0 34 22 58t57 24t57 -24t22 -58t-23 -58q-23 -22 -57 -22t-56 22t-22 58zM313 1282q0 34 23 58q22 24 56 24t57 -24t23 -58t-24 -58q-22 -22 -56 -22t-56 22t-23 58z" />
    <glyph glyph-name="uni0452" unicode="&#x452;" horiz-adv-x="1112" 
d="M276 924q172 94 318 94q196 0 290.5 -100t94.5 -353q0 -365 -106.5 -597t-149.5 -312l-84 41q116 219 177 421t61 422t-66 303t-218 83t-321 -105v-821h-98v1180h-147v88h147v166h98v-166h248v-88h-248v-256h4z" />
    <glyph glyph-name="uni0453" unicode="&#x453;" horiz-adv-x="866" 
d="M463 1190v10l98 225h111v-10l-121 -225h-88zM831 987v-88h-561v-899h-98v987h659z" />
    <glyph glyph-name="uni0454" unicode="&#x454;" horiz-adv-x="958" 
d="M117 493.5q0 235.5 117.5 380t330.5 144.5q173 0 301 -74l-35 -82q-122 64 -274 64t-237.5 -108t-98.5 -279h500v-88h-500q13 -268 136.5 -329t207.5 -61q144 0 266 64l35 -82q-130 -74 -301 -74q-213 0 -330.5 144.5t-117.5 380z" />
    <glyph glyph-name="uni0455" unicode="&#x455;" horiz-adv-x="890" 
d="M684 238q0 76 -44 120q-44 45 -159 80l-123 37q-113 35 -174 94t-61 173t88 195t248 81t307 -70l-37 -88q-117 64 -251 65t-193 -51t-59 -124q0 -70 33 -112q34 -42 126 -69l123 -37q141 -41 210 -103q68 -61 68 -181t-94 -200t-260 -79q-112 0 -190 27t-144 67l45 82
q109 -84 287 -84q122 1 188 51t66 126z" />
    <glyph glyph-name="uni0456" unicode="&#x456;" horiz-adv-x="442" 
d="M141 1282q0 34 23 58q22 24 56 24t56 -24t23 -58q0 -34 -23 -58q-22 -22 -56 -22t-56 22t-23 58zM172 0v987h98v-987h-98z" />
    <glyph glyph-name="uni0457" unicode="&#x457;" horiz-adv-x="446" 
d="M328 1282q0 34 22 58t57 24t57 -24t22 -58t-24 -58q-22 -22 -56 -22t-56 22t-22 58zM-37 1282q0 34 23 58q22 24 56 24t56 -24t23 -58q0 -34 -23 -58q-22 -22 -56 -22t-56 22t-23 58zM174 0v987h98v-987h-98z" />
    <glyph glyph-name="uni0458" unicode="&#x458;" horiz-adv-x="442" 
d="M141 1282q0 34 23 58q22 24 56 24t56 -24t23 -58q0 -34 -23 -58q-22 -22 -56 -22t-56 22t-23 58zM41 -344q131 0 131 182v1149h98v-1114q0 -170 -55 -240t-172 -69q-61 0 -115 16v88q51 -12 113 -12z" />
    <glyph glyph-name="uni0459" unicode="&#x459;" horiz-adv-x="1513" 
d="M1339 288.5q0 200.5 -256 200.5h-252v-401h252q256 0 256 200.5zM41 -14v92q45 0 77 9t65 73.5t44 374.5l19 452h585v-409h265q164 0 251 -74t87 -215.5t-88.5 -215t-249.5 -73.5h-363v899h-395l-14 -356q-16 -351 -62.5 -434.5t-96.5 -103t-124 -19.5z" />
    <glyph glyph-name="uni045A" unicode="&#x45a;" horiz-adv-x="1566" 
d="M1393 288.5q0 200.5 -256 200.5h-252v-401h252q256 0 256 200.5zM786 489h-516v-489h-98v987h98v-409h516v409h99v-409h264q164 0 251 -74t87 -215.5t-88 -215t-250 -73.5h-363v489z" />
    <glyph glyph-name="uni045B" unicode="&#x45b;" horiz-adv-x="1138" 
d="M618 1018q357 0 357 -389v-629h-98v612q0 314 -267 314q-179 0 -338 -121v-805h-98v1171h-158v89h158v174h98v-174h238v-89h-238v-268h4q89 54 165 85q77 30 177 30z" />
    <glyph glyph-name="uni045C" unicode="&#x45c;" horiz-adv-x="911" 
d="M455 1190v10l98 225h111v-10l-121 -225h-88zM270 461v-461h-98v987h98v-471h4l465 471h121v-10l-485 -483l502 -484v-10h-127l-476 461h-4z" />
    <glyph glyph-name="uni045D" unicode="&#x45d;" horiz-adv-x="1116" 
d="M389 1425h111l98 -225v-10h-88l-121 225v10zM944 987v-987h-98v821h-4l-566 -821h-104v987h98v-825h4l566 825h104z" />
    <glyph glyph-name="uni045E" unicode="&#x45e;" horiz-adv-x="970" 
d="M197 -344q65 0 114 54t78 130l62 164l-400 971v12h105l340 -852h6l311 852h100v-12l-421 -1143q-49 -129 -119 -199t-180 -69q-61 0 -127 18v90q66 -16 131 -16zM504 1255q90 0 132 32t71 71l53 -41q-35 -61 -93 -105q-59 -44 -163 -43q-104 0 -163 43q-58 43 -93 105
l53 41q29 -39 71 -71t132 -32z" />
    <glyph glyph-name="uni045F" unicode="&#x45f;" horiz-adv-x="1110" 
d="M172 0v987h98v-899h570v899h98v-987h-332l-10 -246h-82l-10 246h-332z" />
    <glyph glyph-name="uni0462" unicode="&#x462;" horiz-adv-x="1386" 
d="M1186 397q0 299 -346 299h-336v-600h336q245 0 295.5 105.5t50.5 195.5zM840 793q452 -1 452 -397t-452 -396h-439v1108h-321v96h321v189h103v-189h467v-96h-467v-315h336z" />
    <glyph glyph-name="uni0463" unicode="&#x463;" horiz-adv-x="1060" 
d="M885 288.5q0 200.5 -256 200.5h-252v-401h252q256 0 256 200.5zM279 899h-232v88h232v447h98v-447h344v-88h-344v-321h264q164 0 251 -74t87 -215.5t-88 -215t-250 -73.5h-362v899z" />
    <glyph glyph-name="uni0472" unicode="&#x472;" horiz-adv-x="1425" 
d="M1182 745q-19 580 -470 580t-470 -580h940zM242 649q19 -581 470 -581t470 581h-940zM1290 696.5q0 -157.5 -31.5 -291t-101.5 -230.5t-179.5 -151.5t-265 -54.5t-265 54.5t-179 151.5t-101.5 230.5t-32 291t32 290.5t101.5 230.5t179 151.5t265 54t265 -54t179.5 -151.5
t101.5 -230.5t31.5 -290.5z" />
    <glyph glyph-name="uni0473" unicode="&#x473;" horiz-adv-x="1150" 
d="M534 926q-142 0 -224 -108t-91 -279h711q-14 268 -134 327.5t-262 59.5zM692 61q217 0 238 390h-711q15 -270 135.5 -330t337.5 -60zM1034 493q0 -101 -22.5 -195.5t-75.5 -167.5t-141 -117t-275.5 -44t-295 148t-107.5 377q0 360 163.5 442t295 82t219.5 -44t141 -117
t75.5 -168t22.5 -196z" />
    <glyph glyph-name="uni0474" unicode="&#x474;" horiz-adv-x="1331" 
d="M1284 1423v-96q-98 0 -139.5 -49t-108.5 -231l-383 -1047h-106l-504 1380v13h104l451 -1256h4l342 955q71 201 139 266t201 65z" />
    <glyph glyph-name="uni0475" unicode="&#x475;" horiz-adv-x="1044" 
d="M987 1010v-92q-51 0 -84 -17.5t-55 -77.5l-316 -823h-102l-375 975v12h99l325 -862h4l273 721q37 100 90 132t141 32z" />
    <glyph glyph-name="uni0490" unicode="&#x490;" horiz-adv-x="1099" 
d="M305 1296v-1296h-102v1393h719l14 288h88l16 -385h-735z" />
    <glyph glyph-name="uni0491" unicode="&#x491;" horiz-adv-x="862" 
d="M270 0h-98v987h545l10 215h84l16 -301l-557 -2v-899z" />
    <glyph glyph-name="uni0E3F" unicode="&#xe3f;" 
d="M835.5 1216.5q-65.5 61.5 -192.5 75.5v-532q124 14 191 75t67 190.5t-65.5 191zM324 758h221v538h-221v-538zM324 96h221v566h-221v-566zM643 96q307 19 307 282q0 262 -307 281v-563zM1008 1043q0 -139 -60.5 -215.5t-144.5 -108.5v-4q113 -29 183.5 -114t70.5 -226
q0 -180 -114 -275.5t-300 -99.5v-221h-98v221h-324v1393h324v184h98v-186q260 -19 312.5 -144t52.5 -204z" />
    <glyph glyph-name="Wgrave" unicode="&#x1e80;" horiz-adv-x="1937" 
d="M57 1393h105l368 -1231h5l378 1231h111l379 -1231h4l369 1231h104v-13l-420 -1380h-108l-381 1243h-4l-381 -1243h-109l-420 1380v13zM801 1759h114l99 -225v-10h-92l-121 225v10z" />
    <glyph glyph-name="wgrave" unicode="&#x1e81;" horiz-adv-x="1642" 
d="M59 987h99l305 -850h4l303 850h102l304 -850h4l305 850h98v-12l-354 -975h-103l-303 864h-4l-303 -864h-102l-355 975v12zM651 1425h111l98 -225v-10h-88l-121 225v10z" />
    <glyph glyph-name="Wacute" unicode="&#x1e82;" horiz-adv-x="1937" 
d="M57 1393h105l368 -1231h5l378 1231h111l379 -1231h4l369 1231h104v-13l-420 -1380h-108l-381 1243h-4l-381 -1243h-109l-420 1380v13zM922 1524v10l98 225h115v-10l-121 -225h-92z" />
    <glyph glyph-name="wacute" unicode="&#x1e83;" horiz-adv-x="1642" 
d="M59 987h99l305 -850h4l303 850h102l304 -850h4l305 850h98v-12l-354 -975h-103l-303 864h-4l-303 -864h-102l-355 975v12zM782 1190v10l99 225h110v-10l-121 -225h-88z" />
    <glyph glyph-name="Wdieresis" unicode="&#x1e84;" horiz-adv-x="1937" 
d="M57 1393h105l368 -1231h5l378 1231h111l379 -1231h4l369 1231h104v-13l-420 -1380h-108l-381 1243h-4l-381 -1243h-109l-420 1380v13zM1071 1640q0 35 23 59q22 23 56 23t56 -24t23 -58q0 -36 -23 -58q-22 -22 -56 -22t-56 23q-22 22 -23 57zM707 1640q0 35 22 59
q23 23 57 23t56 -24t22 -58q0 -36 -22 -58t-57 -22q-34 0 -56 23q-22 22 -22 57z" />
    <glyph glyph-name="wdieresis" unicode="&#x1e85;" horiz-adv-x="1642" 
d="M59 987h99l305 -850h4l303 850h102l304 -850h4l305 850h98v-12l-354 -975h-103l-303 864h-4l-303 -864h-102l-355 975v12zM928 1282q0 34 22 58t57 24t57 -24t22 -58t-24 -58q-22 -22 -56 -22t-56 22t-22 58zM563 1282q0 34 23 58q22 24 56 24t56 -24t23 -58
q0 -34 -23 -58q-22 -22 -56 -22t-56 22t-23 58z" />
    <glyph glyph-name="uni1E9E" unicode="&#x1e9e;" horiz-adv-x="1308" 
d="M946 1231q-151 94 -317 94q-173 0 -252.5 -111.5t-79.5 -343.5v-870h-104v868q0 414 161.5 484.5t287.5 70.5t223.5 -35.5t195.5 -97.5v-65l-279 -422v-4q189 0 309.5 -107t120.5 -300t-116.5 -308t-313.5 -115q-114 0 -247 35v100q128 -36 261 -36t221.5 80.5
t88.5 244.5t-101.5 240t-271.5 76h-84v65z" />
    <glyph glyph-name="Ygrave" unicode="&#x1ef2;" horiz-adv-x="1093" 
d="M1057 1393v-13l-459 -786v-594h-102v594l-459 786v13h113l395 -686h4l395 686h113zM395 1759h115l98 -225v-10h-92l-121 225v10z" />
    <glyph glyph-name="ygrave" unicode="&#x1ef3;" horiz-adv-x="970" 
d="M197 -344q65 0 114 54t78 130l62 164l-400 971v12h105l340 -852h6l311 852h100v-12l-421 -1143q-49 -129 -119 -199t-180 -69q-61 0 -127 18v90q66 -16 131 -16zM340 1425h111l98 -225v-10h-88l-121 225v10z" />
    <glyph glyph-name="endash" unicode="&#x2013;" horiz-adv-x="1107" 
d="M160 508v88h788v-88h-788z" />
    <glyph glyph-name="emdash" unicode="&#x2014;" horiz-adv-x="1785" 
d="M160 508v88h1466v-88h-1466z" />
    <glyph glyph-name="quoteleft" unicode="&#x2018;" horiz-adv-x="442" 
d="M133 936v12l92 445h84v-13l-61 -444h-115z" />
    <glyph glyph-name="quoteright" unicode="&#x2019;" horiz-adv-x="436" 
d="M317 1393v-13l-92 -444h-84v12l62 445h114z" />
    <glyph glyph-name="quotesinglbase" unicode="&#x201a;" horiz-adv-x="452" 
d="M291 127v-12l-92 -445h-84v13l61 444h115z" />
    <glyph glyph-name="quotedblleft" unicode="&#x201c;" horiz-adv-x="739" 
d="M430 936v12l92 445h84v-13l-61 -444h-115zM133 936v12l92 445h84v-13l-61 -444h-115z" />
    <glyph glyph-name="quotedblright" unicode="&#x201d;" horiz-adv-x="729" 
d="M317 1393v-13l-92 -444h-84v12l62 445h114zM610 1393v-13l-92 -444h-84v12l62 445h114z" />
    <glyph glyph-name="quotedblbase" unicode="&#x201e;" horiz-adv-x="745" 
d="M291 127v-12l-92 -445h-84v13l61 444h115zM584 127v-12l-92 -445h-84v13l61 444h115z" />
    <glyph glyph-name="dagger" unicode="&#x2020;" horiz-adv-x="966" 
d="M432 987v447h103v-447h368v-96h-368v-1297h-103v1297h-369v96h369z" />
    <glyph glyph-name="daggerdbl" unicode="&#x2021;" horiz-adv-x="1097" 
d="M498 987v447h102v-447h367v-96h-367v-754h367v-96h-367v-447h-102v447h-367v96h367v754h-367v96h367z" />
    <glyph glyph-name="bullet" unicode="&#x2022;" horiz-adv-x="651" 
d="M213 749q0 53 33 85q34 32 84 32t83 -32t33 -85t-33 -85t-83 -32t-84 32q-33 32 -33 85z" />
    <glyph glyph-name="ellipsis" unicode="&#x2026;" horiz-adv-x="1273" 
d="M145 59q0 41 26 66t65 25q38 0 64 -25t26 -66t-26 -65t-64 -25q-38 1 -65 25q-26 24 -26 65zM547 59q0 41 25 66q26 25 65 25t65 -25t25 -66q0 -41 -26 -65q-27 -24 -65 -25q-38 1 -64 25t-25 65zM948 59q0 41 26 66t64 25t65 -25q25 -25 25 -66t-26 -65t-64 -25
q-38 1 -64 25t-26 65z" />
    <glyph glyph-name="perthousand" unicode="&#x2030;" horiz-adv-x="2164" 
d="M301 0v10l809 1383h98v-11l-809 -1382h-98zM1542 334q0 246 149 320q49 26 117 26q129 0 197 -93t70 -253q0 -244 -149 -321q-50 -25 -118 -25t-118 26q-99 51 -131 181q-17 63 -17 139zM1632 333q0 -265 176 -263q175 0 176 265t-176 263q-176 0 -176 -265zM365 1401
q129 0 196 -93q68 -93 70 -253q0 -244 -149 -321q-50 -26 -118 -26t-117 26q-149 76 -149 321t149 320q50 26 118 26zM541 1055q-1 264 -177 264t-176 -265t177 -263q176 0 176 264zM870 334q0 246 149 320q50 26 118 26q129 0 196 -93q68 -93 70 -253q0 -244 -149 -321
q-50 -25 -118 -25t-117 26q-99 51 -132 181q-17 63 -17 139zM961 333q0 -265 176 -263q176 0 176 265t-176 263q-176 0 -176 -265z" />
    <glyph glyph-name="guilsinglleft" unicode="&#x2039;" horiz-adv-x="591" 
d="M98 555l305 418l70 -51l-270 -369l266 -369l-66 -51l-305 418v4z" />
    <glyph glyph-name="guilsinglright" unicode="&#x203a;" horiz-adv-x="591" 
d="M494 551l-306 -418l-65 51l266 369l-270 369l69 51l306 -418v-4z" />
    <glyph glyph-name="fraction" unicode="&#x2044;" horiz-adv-x="163" 
d="M-373 0v10l809 1383h99v-11l-809 -1382h-99z" />
    <glyph glyph-name="uni2070" unicode="&#x2070;" horiz-adv-x="696" 
d="M348 1655q130 0 198 -94t68 -252q0 -244 -148 -321q-50 -26 -118 -26t-118 26q-148 75 -148 321t148 320q50 26 118 26zM348 1573q-176 -1 -176 -265t176 -264t176 264t-176 265z" />
    <glyph glyph-name="uni2074" unicode="&#x2074;" horiz-adv-x="655" 
d="M492 1477v-279h104v-76h-104v-147h-86v147h-349v60l185 456h90l-174 -438v-2h248v279h86z" />
    <glyph glyph-name="uni2075" unicode="&#x2075;" horiz-adv-x="595" 
d="M254 1305q-106 0 -139 -5l-11 11l46 327h344v-75h-271l-24 -181h67q256 0 254 -204q0 -104 -69 -162q-70 -58 -183 -58t-205 41l21 74q71 -30 168 -35q94 0 136 32t42 108q0 127 -176 127z" />
    <glyph glyph-name="uni2076" unicode="&#x2076;" horiz-adv-x="610" 
d="M164 1188q0 -62 39 -106t109 -44t108 44q39 44 39 106t-39 104q-39 43 -109 43q-71 0 -109 -43t-38 -104zM326 1415q109 0 166 -62t57 -158t-58 -167q-58 -70 -178 -70q-121 0 -180 66t-59 159t65 189l162 266h96v-10l-147 -225v-2q35 14 76 14z" />
    <glyph glyph-name="uni2077" unicode="&#x2077;" horiz-adv-x="530" 
d="M387 1563h-338v75h436v-63l-247 -600h-93v10l242 576v2z" />
    <glyph glyph-name="uni2078" unicode="&#x2078;" horiz-adv-x="638" 
d="M319 1366q70 0 97 32q26 32 26 72t-26 73q-27 32 -97 32q-71 0 -97 -32t-26 -73q0 -40 27 -72q26 -32 96 -32zM106 1470q0 85 56 135t157 50t157 -50t56 -137t-102 -141v-2q59 -21 95 -67t36 -118t-59 -126q-58 -56 -182 -56t-183 56t-59 126q0 138 131 185v2
q-103 58 -103 143zM319 1038q82 0 117 38t35 85t-35 85t-117 38q-83 0 -117 -38t-34 -85t34 -85t117 -38z" />
    <glyph glyph-name="uni2079" unicode="&#x2079;" horiz-adv-x="608" 
d="M444 1425q0 61 -38 106q-39 44 -109 44t-109 -44q-38 -43 -38 -105t38 -105t109 -43q70 0 109 43q38 43 38 104zM283 1198q-109 0 -166 62t-57 157q0 94 58 166q59 72 179 72q119 0 178 -66t59 -158t-65 -190l-162 -266h-96v10l147 225v2q-35 -14 -75 -14z" />
    <glyph glyph-name="uni207A" unicode="&#x207a;" horiz-adv-x="526" 
d="M305 1364h148v-76h-148v-151h-84v151h-147v76h147v154h84v-154z" />
    <glyph glyph-name="uni207B" unicode="&#x207b;" horiz-adv-x="589" 
d="M104 1292v76h381v-76h-381z" />
    <glyph glyph-name="uni207D" unicode="&#x207d;" horiz-adv-x="344" 
d="M219 864q-141 218 -141 437t141 446l55 -33q-52 -98 -80 -207t-28 -198q0 -217 108 -412z" />
    <glyph glyph-name="uni207E" unicode="&#x207e;" horiz-adv-x="344" 
d="M125 1747q141 -228 141 -446q0 -219 -141 -437l-55 33q110 195 109 406t-109 411z" />
    <glyph glyph-name="uni2080" unicode="&#x2080;" horiz-adv-x="696" 
d="M82 90q0 244 148 321q50 25 118 25t118 -26q148 -75 148 -320q0 -246 -148 -320q-50 -26 -118 -26q-130 0 -198 94t-68 252zM172 89q0 -265 176 -263q176 0 176 265t-176 263q-176 0 -176 -265z" />
    <glyph glyph-name="uni2081" unicode="&#x2081;" horiz-adv-x="448" 
d="M51 229v80l225 111h70v-664h-86v568h-2l-197 -95h-10z" />
    <glyph glyph-name="uni2082" unicode="&#x2082;" horiz-adv-x="595" 
d="M274 436q112 0 172 -59t60 -141t-30 -130q-30 -47 -75 -92l-194 -180v-2h311v-76h-446v66l237 219q43 39 75 82t32 100t-37 95t-110 38t-152 -73l-47 61q92 92 204 92z" />
    <glyph glyph-name="uni2083" unicode="&#x2083;" horiz-adv-x="612" 
d="M274 -180q164 0 164 121q0 53 -42 84t-134 30h-102v76h106q86 0 123 32t37 77q0 118 -145 116q-96 0 -168 -39l-29 72q84 47 195 47q113 0 175 -48t62 -120t-33 -113q-33 -40 -77 -57v-2q124 -42 122 -159q0 -92 -69 -145q-69 -52 -159 -52q-142 0 -234 49l26 74
q93 -43 182 -43z" />
    <glyph glyph-name="uni2084" unicode="&#x2084;" horiz-adv-x="655" 
d="M492 258v-278h104v-76h-104v-148h-86v148h-349v59l185 457h90l-174 -438v-2h248v278h86z" />
    <glyph glyph-name="uni2085" unicode="&#x2085;" horiz-adv-x="595" 
d="M254 86q-99 0 -139 -4l-11 10l46 328h344v-76h-271l-24 -180h67q256 0 254 -205q0 -104 -69 -162q-70 -57 -186 -57t-202 41l21 74q82 -35 172 -35t132 32t42 107q0 127 -176 127z" />
    <glyph glyph-name="uni2086" unicode="&#x2086;" horiz-adv-x="608" 
d="M164 -31q0 -61 39 -105t109 -44t108 44q39 44 39 105t-39 105t-109 43q-71 1 -109 -43t-38 -105zM549 -31q0 -148 -126 -208q-46 -22 -112 -21q-119 0 -178 66t-59 157q0 92 65 191l162 266h96v-10l-147 -226v-2q33 13 76 15q109 -1 166 -63t57 -165z" />
    <glyph glyph-name="uni2087" unicode="&#x2087;" horiz-adv-x="530" 
d="M387 344h-338v76h436v-64l-247 -600h-93v11l242 575v2z" />
    <glyph glyph-name="uni2088" unicode="&#x2088;" horiz-adv-x="638" 
d="M319 147q70 0 97 32t26 73q0 41 -26 73q-27 31 -97 31q-71 0 -97 -32t-26 -72q0 -41 27 -73q26 -32 96 -32zM106 251q0 85 56 135t157 50t157 -50t56 -136t-102 -141v-3q59 -20 95 -66t36 -118t-59 -126q-58 -56 -182 -56t-183 55t-59 127t36 118t95 66v3
q-103 57 -103 142zM319 -180q82 0 117 38t35 85t-35 85t-117 38q-83 0 -117 -38t-34 -85t34 -85t117 -38z" />
    <glyph glyph-name="uni2089" unicode="&#x2089;" horiz-adv-x="608" 
d="M444 207q0 61 -38 105q-39 44 -109 44t-109 -44q-38 -44 -38 -105t38 -105q39 -43 109 -43t109 43q38 44 38 105zM283 -20q-109 0 -166 62t-58 165q0 143 126 207q46 23 112 22q119 0 178 -66t59 -157q0 -92 -65 -190l-162 -267h-96v11l147 225v2q-35 -14 -75 -14z" />
    <glyph glyph-name="uni208D" unicode="&#x208d;" horiz-adv-x="344" 
d="M219 -354q-141 218 -141 437q0 220 141 445l55 -32q-108 -200 -108 -411q0 -212 108 -407z" />
    <glyph glyph-name="uni208E" unicode="&#x208e;" horiz-adv-x="344" 
d="M125 528q141 -228 141 -447q0 -220 -141 -435l-55 32q110 195 109 407q-1 211 -109 411z" />
    <glyph glyph-name="colonmonetary" unicode="&#x20a1;" 
d="M297 696q0 -320 111 -475l180 1084q-158 -49 -224.5 -208t-66.5 -401zM731 1325l-51 -2l-195 -1184q60 -45 144 -61l205 1235q-55 12 -103 12zM731 68q150 0 270 75l35 -86q-139 -88 -305 -88l-29 2l-30 -192h-92l32 203q-84 16 -145 51l-41 -254h-92l51 315
q-192 184 -192 619t152.5 555.5t258.5 142.5l29 166h90l-27 -156q10 2 12 2h23q57 0 119 -12l29 166h90l-31 -191q69 -24 109 -51l-29 -92q-49 29 -96 47l-203 -1222h12z" />
    <glyph glyph-name="lira" unicode="&#x20a4;" 
d="M480.5 190q-43.5 -69 -91.5 -94v-4h631v-92h-795v78q86 35 139.5 113.5t53.5 154.5t-6 139h-207v86h194q-10 63 -21 126l-22 126h-151v86h139q-8 74 -8 161q0 169 105.5 261t257.5 92t300 -98l-47 -82q-126 82 -258 82q-173 0 -215.5 -95t-42.5 -159t10 -162h435v-86
h-422l47 -252h375v-86h-365q8 -66 8 -146t-43.5 -149z" />
    <glyph glyph-name="uni20A6" unicode="&#x20a6;" 
d="M901 188v279h-135l131 -279h4zM317 891h150l-145 315h-5v-315zM901 553v252h-293l119 -252h174zM317 553h308l-117 252h-191v-252zM215 891v502h119l233 -502h334v502h100v-502h136v-86h-136v-252h136v-86h-136v-467h-118l-217 467h-349v-467h-102v467h-145v86h145v252
h-145v86h145z" />
    <glyph glyph-name="uni20A8" unicode="&#x20a8;" 
d="M457 639h-107l576 -625v-14h-129l-600 657v76h247q305 0 330 238h-600l29 98h569q-29 219 -311 225h-287l29 99h854l-29 -99h-301v-6q131 -62 152 -219h178l-29 -98h-149q-14 -156 -119 -244t-303 -88z" />
    <glyph glyph-name="uni20AA" unicode="&#x20aa;" 
d="M1135 1393v-936q0 -257 -100.5 -357t-346.5 -100h-278v1016h102v-920h150q106 0 177.5 12.5t114.5 50.5t60.5 108.5t17.5 189.5v936h103zM719 377v559q0 109 -10.5 178.5t-45 109.5t-99 55t-171.5 15h-211v-1294h-102v1393h340q240 0 320.5 -99.5t80.5 -359.5v-557h-102z
" />
    <glyph glyph-name="dong" unicode="&#x20ab;" 
d="M942 88v-88h-729v88h729zM545 971q-289 0 -289 -334t289 -334q173 0 299 137v394q-124 137 -299 137zM1075 1303v-89h-133v-972h-78l-12 90h-4q-51 -47 -125 -84t-191 -37q-190 0 -284 112.5t-94 313.5t94 313.5t284 112.5q111 0 178.5 -30t129.5 -87h4v268h-223v89h223
v133h98v-133h133z" />
    <glyph glyph-name="Euro" unicode="&#x20ac;" 
d="M233 684v48t5 77h-158l26 86h140q51 386 233.5 457t282.5 71q207 0 346 -88l-29 -92q-133 82 -295 82q-293 0 -356 -165t-78 -265h631l-25 -88l-616 2q-2 -29 -2 -36v-92q0 -85 4 -116h545l-25 -86h-510q60 -411 432 -411q157 0 279 75l35 -86q-139 -88 -314 -88
q-348 0 -433 196.5t-103 313.5h-168l26 86h132q-5 78 -5 119z" />
    <glyph glyph-name="uni20AD" unicode="&#x20ad;" 
d="M1071 0h-127l-530 633h-17v-633h-102v633h-158v86h158v674h102v-674h17l506 674h118v-13l-503 -661h428v-86h-418l526 -621v-12z" />
    <glyph glyph-name="uni20AE" unicode="&#x20ae;" 
d="M1075 1393v-97h-418v-432l201 78v-104l-201 -78v-162l201 78v-105l-201 -77v-494h-102v453l-213 -82v104l213 82v162l-213 -82v104l213 82v473h-418v97h938z" />
    <glyph glyph-name="uni20B1" unicode="&#x20b1;" 
d="M575 553q240 0 310 182h-545v-182h235zM340 1108h547q-72 188 -312 188h-235v-188zM918 927q0 54 -9 95h-569v-201h569q9 52 9 106zM340 457v-457h-102v735h-132v86h132v201h-132v86h132v285h350q334 0 411 -285h121v-86h-102q6 -47 6 -101t-6 -100h102v-86h-121
q-84 -279 -411 -278h-248z" />
    <glyph glyph-name="uni20B2" unicode="&#x20b2;" 
d="M596 72v1247q-346 -60 -346 -629q0 -570 346 -618zM791 659h260v-569q-157 -113 -357 -121v-190h-98v194q-233 23 -342 216t-109 507q0 470 165 587.5t286 133.5v160h98v-154q119 -4 196 -37.5t148 -85.5l-53 -77q-133 94 -291 102v-1257q147 4 254 73v422l-157 19v77z
" />
    <glyph glyph-name="uni20B4" unicode="&#x20b4;" 
d="M1010 125q-176 -156 -364 -156q-194 0 -304.5 108.5t-110.5 276.5q0 74 21 129h-109v86h154q40 50 158 103l215 98h-527v86h645q89 70 89 190q0 119 -71.5 199t-221.5 80t-287 -104l-41 86q143 116 331 116q187 0 290.5 -107t103.5 -274q0 -102 -55 -186h129v-86h-211
q-56 -40 -101 -61t-84 -39l-221 -101h617v-86h-690q-31 -55 -31 -128q0 -138 82 -212.5t202 -74.5t200.5 41t142.5 98z" />
    <glyph glyph-name="uni20B5" unicode="&#x20b5;" 
d="M297 696q0 -262 79 -424.5t265 -197.5v1243q-344 -60 -344 -621zM739 -221h-98v196q-225 31 -336.5 222t-111.5 580.5t165.5 506.5t282.5 133v160h98v-154q174 -5 308 -88l-29 -92q-128 77 -279 82v-1257q139 0 262 75l35 -86q-128 -84 -297 -88v-190z" />
    <glyph glyph-name="uni2113" unicode="&#x2113;" horiz-adv-x="843" 
d="M602 1192q0 180 -96 180q-59 0 -86 -53t-27 -184v-418q209 205 209 475zM705 1209q0 -353 -312 -613v-348q0 -82 25.5 -134.5t103.5 -52.5q106 0 234 89l32 -89q-150 -92 -271 -92q-122 0 -172 71t-50 204v278q-94 -65 -205 -119l-41 78q150 79 246 152v508
q0 256 82 289.5t132 33.5q98 0 147 -74t49 -181z" />
    <glyph glyph-name="uni2116" unicode="&#x2116;" horiz-adv-x="2111" 
d="M1087 188v1205h101v-1393h-98l-803 1206h-4v-1206h-103v1393h99l804 -1205h4zM1393 1028q0 228 162 303q55 27 135 27q145 0 222 -90t79 -240q0 -224 -163 -303q-56 -27 -136 -27q-149 0 -224 92t-75 238zM1442 467v88h506v-88h-506zM1489 1028q0 -238 203 -242
q106 0 154 70t48 172q0 171 -110 223q-39 19 -92 19q-105 1 -154 -66q-49 -66 -49 -176z" />
    <glyph glyph-name="uni2117" unicode="&#x2117;" horiz-adv-x="1712" 
d="M856 59q277 0 454 178.5t177 458.5q0 279 -176.5 458t-454.5 179t-454.5 -178.5t-176.5 -458.5q0 -279 177 -458t454 -179zM1583 696.5q0 -153.5 -55 -287t-153.5 -231.5t-231.5 -153.5t-287 -55.5t-287 55.5t-231 153.5t-153.5 231.5t-55.5 287t55.5 286.5t153.5 231.5
t231 153.5t287 55t287 -55t231.5 -153.5t153.5 -231.5t55 -286.5zM729 696h182q78 0 114 44t36 103.5t-36 103.5t-114 44h-182v-295zM635 313v766h270q129 0 191.5 -62.5t62.5 -170.5t-63.5 -173t-190.5 -65h-176v-295h-94z" />
    <glyph glyph-name="trademark" unicode="&#x2122;" horiz-adv-x="1484" 
d="M598 1434v-78h-186v-496h-88v496h-187v78h461zM1309 1434v-574h-88v447h-2l-166 -289h-74l-166 289h-2v-447h-88v574h106l185 -322h4l184 322h107z" />
    <glyph glyph-name="Omega" unicode="&#x2126;" horiz-adv-x="1417" 
d="M143 766q0 451 205 554t427.5 103t360.5 -184t138 -473q0 -404 -287 -670h262v-96h-409v88q327 239 327 678q0 387 -159.5 473t-458.5 86t-299 -559q0 -438 328 -678v-88h-410v96h262q-287 266 -287 670z" />
    <glyph glyph-name="estimated" unicode="&#x212e;" horiz-adv-x="1409" 
d="M712 1135q-208 0 -333 -129v-330h678v330q-137 129 -345 129zM732 -31q-272 0 -434.5 180t-162.5 446q0 267 162.5 442t419.5 175t417.5 -165t170.5 -433l-15 -20h-911v-412q133 -127 338 -127q277 0 420 217l75 -55q-96 -133 -214 -190.5t-266 -57.5z" />
    <glyph glyph-name="onethird" unicode="&#x2153;" horiz-adv-x="1392" 
d="M172 0v10l809 1383h98v-11l-809 -1382h-98zM86 1202v80l225 111h70v-664h-86v567h-2l-197 -94h-10zM1198 184q0 115 -176 115h-102v76h106q86 0 123 32t37 76q0 117 -146 117q-96 0 -168 -39l-28 72q84 47 195 47q112 0 174 -48q63 -48 63 -120t-33 -114q-33 -40 -78 -56
v-2q123 -42 123 -160q0 -92 -70 -144t-158 -52q-141 0 -235 49l27 73q89 -41 182 -43q164 0 164 121z" />
    <glyph glyph-name="twothirds" unicode="&#x2154;" horiz-adv-x="1556" 
d="M336 0v10l809 1383h98v-11l-809 -1382h-98zM316 1405q112 0 171 -59q59 -60 59 -142t-29 -129q-30 -47 -75 -92l-194 -180v-2h311v-76h-446v66l237 219q43 39 75 82t32 100t-37 95t-111 38t-151 -74l-47 62q93 92 205 92zM1362 184q0 115 -176 115h-103v76h107
q86 0 123 32t37 76q0 117 -146 117q-96 0 -168 -39l-28 72q84 47 195 47t173 -48t64 -120q0 -72 -33 -114q-33 -40 -78 -56v-2q123 -42 123 -160q0 -92 -70 -144t-159 -52q-143 0 -234 49l27 73q89 -41 182 -43q164 0 164 121z" />
    <glyph glyph-name="oneeighth" unicode="&#x215b;" horiz-adv-x="1394" 
d="M172 0v10l809 1383h98v-11l-809 -1382h-98zM86 1202v80l225 111h70v-664h-86v567h-2l-197 -94h-10zM1055 391q71 0 97 32t26 73q0 40 -27 72t-97 32t-96 -32t-26 -72t26 -73q26 -32 97 -32zM1055 680q100 0 156 -50q57 -50 57 -135t-103 -143v-2q59 -20 95 -66t36 -118
t-59 -127t-182 -55t-183 55q-59 55 -59 127t36 118t95 66v2q-104 58 -103 143t57 135q57 50 157 50zM1055 63q83 0 117 38t34 85t-35 85t-117 38t-116 -38q-35 -38 -35 -85t35 -85t117 -38z" />
    <glyph glyph-name="threeeighths" unicode="&#x215c;" horiz-adv-x="1531" 
d="M309 0v10l809 1383h99v-11l-809 -1382h-99zM1192 391q70 0 96 32t27 73q0 40 -27 72q-26 32 -96 32t-96 -32t-27 -72q1 -40 27 -73q26 -32 96 -32zM979 495q0 85 56 135q57 50 157 50t156 -50t57 -135q0 -85 -102 -143v-2q59 -20 95 -66t36 -118t-60 -127t-182 -55
q-123 0 -182 55q-60 55 -60 127t36 118t95 66v2q-102 58 -102 143zM1192 63q82 0 117 38t34 85q0 47 -34 85q-35 38 -117 38t-117 -38t-35 -85t35 -85t117 -38zM475 907q0 115 -176 115h-102v76h106q86 0 123 32t37 76q0 117 -146 117q-96 0 -167 -39l-29 72q84 47 195 47
q112 0 174 -48q62 -49 62 -121t-32 -112q-33 -40 -78 -57v-2q123 -42 123 -160q1 -92 -69 -144t-160 -52q-141 0 -234 49l27 73q89 -41 182 -43q164 0 164 121z" />
    <glyph glyph-name="fiveeighths" unicode="&#x215d;" horiz-adv-x="1505" 
d="M283 0v10l809 1383h98v-11l-809 -1382h-98zM289 1059q-99 0 -139 -4l-11 10l45 328h344v-76h-270l-25 -180h68q254 0 254 -205q0 -104 -70 -162t-186 -57q-116 0 -201 41l21 73q80 -34 171 -34q91 -1 133 31t42 108q0 127 -176 127zM1165 391q70 0 97 32t26 73
q0 40 -26 72t-97 32t-97 -32t-26 -72t26 -73q26 -32 97 -32zM952 495q0 85 56 135t157 50t157 -50t56 -135t-102 -143v-2q59 -20 95 -66t36 -118t-59 -127q-58 -55 -182 -55t-183 55t-59 127q0 141 131 184v2q-103 58 -103 143zM1165 63q82 0 117 38t35 85t-35 85t-117 38
q-83 0 -117 -38t-34 -85t34 -85t117 -38z" />
    <glyph glyph-name="seveneighths" unicode="&#x215e;" horiz-adv-x="1370" 
d="M147 0v10l809 1383h99v-11l-809 -1382h-99zM1030 391q70 0 96 32t27 73q0 40 -27 72q-26 32 -96 32t-96 -32t-27 -72q1 -40 27 -73q26 -32 96 -32zM817 495q0 85 56 135q57 50 157 50t156 -50t57 -135q0 -85 -102 -143v-2q59 -20 95 -66t36 -118t-60 -127t-182 -55
q-123 0 -182 55q-60 55 -60 127t36 118t96 66v2q-103 58 -103 143zM1030 63q82 0 117 38t35 85t-35 85t-117 38t-117 -38t-35 -85t36 -85q34 -38 116 -38zM436 1317h-338v76h437v-64l-248 -600h-92v10l241 576v2z" />
    <glyph glyph-name="arrowleft" unicode="&#x2190;" horiz-adv-x="1826" 
d="M1827 733v-78h-1602l693 -678l-60 -61l-776 778l776 779l60 -62l-693 -678h1602z" />
    <glyph glyph-name="arrowup" unicode="&#x2191;" horiz-adv-x="1826" 
d="M987 -180h-78v1601l-678 -692l-61 59l778 777l778 -777l-61 -59l-678 692v-1601z" />
    <glyph glyph-name="arrowright" unicode="&#x2192;" horiz-adv-x="1826" 
d="M82 655v78h1601l-692 678l60 62l776 -779l-776 -778l-60 61l692 678h-1601z" />
    <glyph glyph-name="arrowdown" unicode="&#x2193;" horiz-adv-x="1826" 
d="M911 1563h78v-1602l678 692l62 -59l-779 -776l-778 776l61 59l678 -692v1602z" />
    <glyph glyph-name="uni2196" unicode="&#x2196;" horiz-adv-x="1851" 
d="M1423 1356v-78h-966l1132 -1131l-57 -57l-1129 1133v-969h-77v1102h1097z" />
    <glyph glyph-name="uni2197" unicode="&#x2197;" horiz-adv-x="1845" 
d="M1647 258h-78v969l-1133 -1135l-57 58l1134 1128h-970v78h1104v-1098z" />
    <glyph glyph-name="uni2198" unicode="&#x2198;" horiz-adv-x="1845" 
d="M549 37v78h969l-1135 1132l57 58l1129 -1135v971h78v-1104h-1098z" />
    <glyph glyph-name="uni2199" unicode="&#x2199;" horiz-adv-x="1851" 
d="M326 1135h77v-967l1133 1132l57 -57l-1134 -1128h971v-78h-1104v1098z" />
    <glyph glyph-name="partialdiff" unicode="&#x2202;" horiz-adv-x="1159" 
d="M570 860q-100 0 -160 -23.5t-131.5 -101.5t-71.5 -263q0 -186 87.5 -298.5t249.5 -112.5q161 0 266 158.5t101 474.5q-154 166 -341 166zM888.5 156.5q-133.5 -187.5 -342.5 -187.5t-325.5 134t-116.5 367t122.5 357.5t312.5 124.5q117 0 210 -35.5t152 -87.5l4 2
q-25 296 -159 385t-231 106t-191 19l26 93q354 0 513 -205.5t159 -545.5q0 -339 -133.5 -526.5z" />
    <glyph glyph-name="Delta" unicode="&#x2206;" horiz-adv-x="1239" 
d="M1180 0h-1121v10l508 1383h105l508 -1383v-10zM618 1266l-425 -1172h854l-426 1172h-3z" />
    <glyph glyph-name="product" unicode="&#x220f;" horiz-adv-x="1361" 
d="M1079 1337h-796v-1743h-103v1840h1002v-1840h-103v1743z" />
    <glyph glyph-name="summation" unicode="&#x2211;" horiz-adv-x="1122" 
d="M111 1434h895v-97h-775l455 -800l-489 -846h839v-97h-958v84l489 854l-456 818v84z" />
    <glyph glyph-name="minus" unicode="&#x2212;" 
d="M1057 596v-88h-907v88h907z" />
    <glyph glyph-name="uni2215" unicode="&#x2215;" horiz-adv-x="948" 
d="M20 0v10l809 1383h99v-11l-809 -1382h-99z" />
    <glyph glyph-name="uni2219" unicode="&#x2219;" horiz-adv-x="503" 
d="M162 592q0 42 26 66t64 24t64 -25t26 -65t-26 -66q-26 -24 -64 -24t-65 24q-25 25 -25 66z" />
    <glyph glyph-name="radical" unicode="&#x221a;" horiz-adv-x="1181" 
d="M51 455h107l297 -707h4l588 1645h104l-649 -1799h-88l-363 850v11z" />
    <glyph glyph-name="infinity" unicode="&#x221e;" horiz-adv-x="1564" 
d="M1143 326q88 0 140 66.5t52 162.5t-52 162.5t-140 66.5t-153.5 -62.5t-149.5 -166.5q84 -104 149.5 -166.5t153.5 -62.5zM1142 868q61 0 114 -23.5t91.5 -64.5t59 -99t20.5 -162t-81 -190.5t-215 -86.5t-221 96t-128 145q-104 -124 -179 -182.5t-189 -58.5t-195.5 86
t-81.5 227t82 227t216 86t220 -96t127 -145q102 121 153.5 161.5t98.5 60t108 19.5zM422 784q-88 0 -140.5 -66.5t-52.5 -162.5t52.5 -162.5t140.5 -66.5t153.5 62.5t149.5 166.5q-84 104 -149.5 166.5t-153.5 62.5z" />
    <glyph glyph-name="integral" unicode="&#x222b;" horiz-adv-x="1067" 
d="M894 1331q-81 0 -129 -41t-67 -145l-225 -1295q-25 -150 -98.5 -219t-231.5 -69q-68 0 -116 12l16 92q49 -12 130 -12t129 41t67 145l225 1295q25 151 101 219.5t186 68.5q111 0 159 -12l-16 -92q-49 12 -130 12z" />
    <glyph glyph-name="approxequal" unicode="&#x2248;" 
d="M419 348q-42 0 -75 -19.5t-84 -72.5l-47 59q94 121 211 121q64 0 152 -33.5t131 -49t85 -15.5t74.5 19.5t83.5 72.5l47 -59q-94 -121 -211 -121q-62 0 -149.5 33.5t-131.5 49t-86 15.5zM419 778q-42 0 -75 -19.5t-84 -72.5l-47 59q94 121 211 121q64 0 152 -33.5t131 -49
t85 -15.5t74.5 19.5t83.5 72.5l47 -59q-94 -121 -211 -121q-64 0 -150.5 34t-130.5 49t-86 15z" />
    <glyph glyph-name="notequal" unicode="&#x2260;" 
d="M360 0v10l97 279h-267v88h297l123 356h-420v88h451l98 287h84v-10l-96 -277h289v-88h-320l-121 -356h441v-88h-471l-99 -289h-86z" />
    <glyph glyph-name="lessequal" unicode="&#x2264;" 
d="M1044 90v-88h-907v88h907zM1042 1270v-92l-794 -357v-6l794 -356v-92h-10l-897 413v76l897 414h10z" />
    <glyph glyph-name="greaterequal" unicode="&#x2265;" 
d="M168 367v92l795 356v6l-795 357v92h10l897 -414v-76l-897 -413h-10zM1071 90v-88h-907v88h907z" />
    <glyph glyph-name="lozenge" unicode="&#x25ca;" horiz-adv-x="1087" 
d="M500 1393h88l436 -697l-442 -696h-88l-433 678zM172 680l367 -586l374 600l-370 602z" />
    <glyph glyph-name="circle" unicode="&#x25cb;" horiz-adv-x="1638" 
d="M1218.5 296q161.5 165 161.5 402t-162 400.5t-401.5 163.5t-400 -162.5t-160.5 -401.5t160 -403t400.5 -164t402 165zM123 698.5q0 147.5 53 274.5t146.5 220t219.5 146.5t272 53.5t275.5 -53.5t223.5 -146.5t148.5 -220t54.5 -274.5t-54.5 -275.5t-148.5 -222.5
t-223.5 -147.5t-275.5 -53t-272 53t-219.5 147.5t-146.5 222.5t-53 275.5z" />
    <glyph glyph-name="H18533" unicode="&#x25cf;" horiz-adv-x="1638" 
d="M123 694q0 148 52 277t199.5 275.5t444.5 146.5q147 0 275.5 -53.5t221.5 -146.5t146.5 -222t53.5 -277t-53.5 -275.5t-146.5 -221t-221 -145.5t-278 -52t-276.5 52t-220 145.5t-145.5 221t-52 275.5z" />
    <glyph glyph-name="uni25DC" unicode="&#x25dc;" horiz-adv-x="690" 
d="M690 1262q-236 0 -396.5 -162.5t-160.5 -401.5h-133q0 147 53 274.5t146.5 220.5t219.5 146.5t271 53.5v-131z" />
    <glyph glyph-name="uni25DD" unicode="&#x25dd;" horiz-adv-x="698" 
d="M0 1393q147 0 275 -53.5t275.5 -198.5t147.5 -443h-135q0 239 -161 401.5t-402 162.5v131z" />
    <glyph glyph-name="uni25DE" unicode="&#x25de;" horiz-adv-x="698" 
d="M0 131q242 0 402.5 164t160.5 403h135q0 -147 -53 -275t-147.5 -222.5t-222.5 -147.5t-275 -53v131z" />
    <glyph glyph-name="uni25DF" unicode="&#x25df;" horiz-adv-x="690" 
d="M690 0q-292 0 -438 147.5t-199 275.5t-53 275h133q0 -239 160 -403t397 -164v-131z" />
    <glyph glyph-name="uniEA01" unicode="&#xea01;" horiz-adv-x="2048" 
d="M1225 625h-400v-400h-200v961h200v-393h400v393h200v-961h-200v400zM1755 -47v1464h-1464v-1464h1464zM141 1567h1764v-1764h-1764v1764z" />
    <glyph glyph-name="uniEA02" unicode="&#xea02;" horiz-adv-x="2048" 
d="M1083 203q-123 0 -210 35.5t-147 102.5t-91 159t-31 262.5t124 307t345 136.5q143 0 277 -61l-56 -160q-103 49 -222 49q-118 0 -187.5 -91t-69.5 -239t72 -238.5t188 -90.5t219 49l56 -160q-144 -61 -267 -61zM1755 -47v1464h-1464v-1464h1464zM141 1567h1764v-1764
h-1764v1764z" />
    <glyph glyph-name="uniEA03" unicode="&#xea03;" horiz-adv-x="2048" 
d="M1027 1036q-130 0 -130 -104q0 -37 20.5 -63.5t79.5 -45.5l103 -32q135 -45 201.5 -107.5t66.5 -187.5t-96 -209t-267 -84q-170 0 -327 92l61 160q47 -33 124 -57.5t151 -24.5q150 0 149 114q0 45 -28.5 71t-106.5 50l-104 33q-133 43 -182.5 111.5t-49.5 158.5
q0 135 90 215t252 80t293 -67l-57 -160q-113 57 -243 57zM1755 -47v1464h-1464v-1464h1464zM141 1567h1764v-1764h-1764v1764z" />
    <glyph glyph-name="uniEA04" unicode="&#xea04;" horiz-adv-x="2048" 
d="M1225 225h200v961h-200v-393h-400v393h-200v-961h200v400h400v-400zM141 1567h1764v-1764h-1764v1764z" />
    <glyph glyph-name="uniEA05" unicode="&#xea05;" horiz-adv-x="2048" 
d="M1088 1206q-128 0 -215 -36.5t-147 -102.5t-91 -158t-31 -262t123 -307t346 -137q129 0 277 61l-56 160q-103 -49 -191.5 -49t-135.5 24.5t-99.5 91t-52.5 213.5q0 148 69.5 239t187.5 91t222 -49l56 160q-134 61 -262 61zM141 1567h1764v-1764h-1764v1764z" />
    <glyph glyph-name="uniEA06" unicode="&#xea06;" horiz-adv-x="2048" 
d="M1368 496q0 125 -66.5 187t-201.5 108l-103 32q-59 18 -79.5 45t-20.5 64q-1 104 129 104t244 -57l57 160q-130 67 -293 67q-162 0 -252 -79.5t-90 -215.5q0 -90 49.5 -158.5t182.5 -111.5l104 -33q78 -25 106.5 -50.5t28.5 -70.5q0 -115 -149 -114q-74 0 -151 24.5
t-124 57.5l-61 -160q157 -92 327 -92t266.5 84t96.5 209zM141 1567h1764v-1764h-1764v1764z" />
    <glyph glyph-name="uniF6C3" unicode="&#xf6c3;" 
d="M676 -160v-12l-64 -274h-77v12l32 274h109z" />
    <glyph glyph-name="uniF6E1" unicode="&#xf6e1;" horiz-adv-x="321" 
d="M219 -131v-10l-72 -310h-67v11l33 309h106z" />
    <glyph glyph-name="uniF6E2" unicode="&#xf6e2;" horiz-adv-x="321" 
d="M219 1087v-10l-72 -309h-67v10l33 309h106z" />
    <glyph glyph-name="uniF6E5" unicode="&#xf6e5;" horiz-adv-x="466" 
d="M104 74v76h258v-76h-258z" />
    <glyph glyph-name="uniF6E6" unicode="&#xf6e6;" horiz-adv-x="466" 
d="M104 1292v76h258v-76h-258z" />
    <glyph glyph-name="uniF6E7" unicode="&#xf6e7;" horiz-adv-x="342" 
d="M90 -179q0 37 23 59t59 22t57 -23t21 -59t-20 -58t-58 -22t-60 22t-22 59z" />
    <glyph glyph-name="uniF6E8" unicode="&#xf6e8;" horiz-adv-x="342" 
d="M172 958q-38 0 -60 22t-22 59q0 36 23 59t59 22q76 0 78 -82q0 -36 -20 -58t-58 -22z" />
    <glyph glyph-name="uniF8FF" unicode="&#xf8ff;" horiz-adv-x="1189" 
d="M899 119v1155h-608v-1155h608zM172 1393h846v-1393h-846v1393z" />
    <glyph glyph-name="uniFB01" unicode="&#xfb01;" horiz-adv-x="1138" 
d="M838 1283q0 40 22.5 60.5t57 20.5t56 -20.5t21.5 -60.5t-21.5 -60.5t-56 -20.5t-57 20.5t-22.5 60.5zM868 0v899h-536v-899h-99v899h-176v72l176 16v168q0 150 69 219.5t210 69.5q66 0 119 -12v-93q-53 13 -133 13t-123 -41t-43 -146v-178h635v-987h-99z" />
    <glyph glyph-name="uniFB02" unicode="&#xfb02;" horiz-adv-x="1175" 
d="M233 0v899h-176v72l176 16v168q0 149 69 219t210 70q66 0 119 -12v-93q-53 13 -133 13t-123 -41t-43 -146v-178h291v-88h-291v-899h-99zM975 1434v-1270q0 -47 14 -72t62 -24h71v-76q-37 -12 -86 -12q-88 0 -124 49t-35 151v1254h98z" />
    <glyph glyph-name="zero.pnum" horiz-adv-x="1310" 
d="M656 1423q504 0 503 -727q0 -527 -273 -676q-94 -51 -230 -51q-384 0 -476 425q-29 134 -28 302q0 727 504 727zM256 696q0 -305 82 -451q96 -177 317 -177q322 0 381 375q18 116 19 253q0 301 -82 452q-96 177 -318 177q-319 0 -381 -376q-18 -116 -18 -253z" />
    <glyph glyph-name="one.pnum" horiz-adv-x="700" 
d="M74 1124v99l364 170h84v-1393h-100v1280h-4l-334 -156h-10z" />
    <glyph glyph-name="two.pnum" horiz-adv-x="1085" 
d="M256 96h698v-96h-839v92l571 578q158 158 158 346q0 133 -87 222q-89 89 -218 88t-213 -45t-150 -110l-59 74q83 83 148 115q125 63 244 63q211 0 327 -113t114 -294q0 -134 -54 -232t-136 -180l-504 -504v-4z" />
    <glyph glyph-name="three.pnum" horiz-adv-x="1118" 
d="M983 381q0 -208 -136 -310t-349 -102t-392 117l44 88q250 -155 498 -88q66 18 117 55q112 83 112 221q0 209 -178 279q-69 27 -173 27h-235v96h254q135 0 217 76t82 208t-86 205q-86 72 -248 72t-326 -86l-37 86q172 100 375 99t316 -101t112 -283q0 -124 -62 -204
t-157 -113v-4q117 -29 185 -125t67 -213z" />
    <glyph glyph-name="four.pnum" horiz-adv-x="1171" 
d="M901 1008v-619h201v-96h-201v-293h-102v293h-725v86l454 1014h105l-443 -1004h609v619h102z" />
    <glyph glyph-name="five.pnum" horiz-adv-x="1085" 
d="M494 723q-143 0 -287 -23l-12 17l92 676h633v-97h-547l-68 -489q96 14 196 14q333 0 432 -221q34 -76 34 -188t-40 -196q-116 -247 -456 -247q-191 0 -379 94l35 93q169 -90 344 -88q273 0 358 186q31 68 31 166q0 303 -366 303z" />
    <glyph glyph-name="six.pnum" horiz-adv-x="1136" 
d="M936 425q0 163 -93 258t-267 95t-268 -95q-93 -95 -93 -258t93 -260t267 -97t268 97q93 97 93 260zM566 877q225 0 352 -125q126 -126 125 -330q-1 -205 -126 -329t-343 -124t-342 124q-125 124 -124 331q1 208 177 479l311 490h113v-13l-371 -573l2 -2q102 72 226 72z
" />
    <glyph glyph-name="seven.pnum" horiz-adv-x="954" 
d="M782 1296h-714v97h825v-84l-508 -1309h-104v12l501 1280v4z" />
    <glyph glyph-name="eight.pnum" horiz-adv-x="1228" 
d="M614 784q160 0 241 69t81 198t-80 201t-242 73q-162 0 -242 -73q-80 -74 -79 -202t81 -197t240 -69zM614 1423q213 0 321 -107q109 -107 108 -272q-1 -166 -129 -262q-36 -27 -72 -43v-4q118 -43 186 -137t68 -223q0 -281 -266 -374q-91 -32 -217 -32q-237 0 -359 113
q-121 113 -121 293q0 129 69 223t185 137v4q-199 86 -201 317q0 70 26 138q55 142 211 200q80 29 191 29zM240 377q0 -135 90 -222t285 -87q196 0 285 87t89 222t-90 222t-285 87q-194 0 -284 -87t-90 -222z" />
    <glyph glyph-name="nine.pnum" horiz-adv-x="1136" 
d="M203 968q0 -163 93 -258q93 -96 267 -96t267 96q94 96 94 258q0 163 -94 260t-267 97q-174 0 -267 -97t-93 -260zM573 516q-225 0 -352 125q-125 125 -125 330t127 330q127 124 345 123t340 -124t122 -332t-176 -478l-311 -490h-113v12l371 574l-2 2q-102 -72 -226 -72z
" />
    <glyph glyph-name="a.salt" horiz-adv-x="1003" 
d="M473 1018q262 0 314.5 -141.5t52.5 -243.5v-633h-78l-12 86h-5q-53 -45 -137 -81t-173 -36q-158 0 -247.5 81t-89.5 228q0 295 475 295h168v60q0 164 -74.5 228.5t-210.5 64.5t-259 -95l-45 74q131 113 321 113zM424 61q170 0 317 113v313h-153q-306 0 -346.5 -81.5
t-40.5 -137.5q0 -98 61.5 -152.5t161.5 -54.5z" />
    <glyph glyph-name="agrave.aalt" horiz-adv-x="1003" 
d="M473 1018q262 0 340 -210q27 -73 27 -175v-633h-78l-12 86h-5q-53 -45 -137 -81t-173 -36q-154 0 -248 81q-89 81 -89 228q0 297 475 295h168v60q-1 165 -75 229t-211 64t-258 -95l-45 74q131 113 321 113zM741 487h-153q-303 0 -367 -122q-20 -41 -20 -97q0 -98 61 -152
t162 -55q170 0 317 113v313zM346 1425h111l98 -225v-10h-88l-121 225v10z" />
    <glyph glyph-name="aacute.aalt" horiz-adv-x="1003" 
d="M473 1018q262 0 340 -210q27 -73 27 -175v-633h-78l-12 86h-5q-53 -45 -137 -81t-173 -36q-154 0 -248 81q-89 81 -89 228q0 297 475 295h168v60q-1 165 -75 229t-211 64t-258 -95l-45 74q131 113 321 113zM741 487h-153q-303 0 -367 -122q-20 -41 -20 -97q0 -98 61 -152
t162 -55q170 0 317 113v313zM438 1190v10l99 225h110v-10l-121 -225h-88z" />
    <glyph glyph-name="acircumflex.aalt" horiz-adv-x="1003" 
d="M473 1018q262 0 340 -210q27 -73 27 -175v-633h-78l-12 86h-5q-53 -45 -137 -81t-173 -36q-154 0 -248 81q-89 81 -89 228q0 297 475 295h168v60q-1 165 -75 229t-211 64t-258 -95l-45 74q131 113 321 113zM741 487h-153q-303 0 -367 -122q-20 -41 -20 -97q0 -98 61 -152
t162 -55q170 0 317 113v313zM739 1190h-104l-141 149l-142 -149h-104v10l209 225h73l209 -225v-10z" />
    <glyph glyph-name="atilde.aalt" horiz-adv-x="1003" 
d="M473 1018q262 0 340 -210q27 -73 27 -175v-633h-78l-12 86h-5q-53 -45 -137 -81t-173 -36q-154 0 -248 81q-89 81 -89 228q0 297 475 295h168v60q-1 165 -75 229t-211 64t-258 -95l-45 74q131 113 321 113zM741 487h-153q-303 0 -367 -122q-20 -41 -20 -97q0 -98 61 -152
t162 -55q170 0 317 113v313zM391 1354q45 0 113 -40q67 -40 97 -40q54 0 108 74l47 -60q-66 -100 -160 -98q-46 0 -113 39q-68 39 -92 41q-59 0 -112 -74l-48 59q65 99 160 99z" />
    <glyph glyph-name="adieresis.aalt" horiz-adv-x="1003" 
d="M473 1018q262 0 340 -210q27 -73 27 -175v-633h-78l-12 86h-5q-53 -45 -137 -81t-173 -36q-154 0 -248 81q-89 81 -89 228q0 297 475 295h168v60q-1 165 -75 229t-211 64t-258 -95l-45 74q131 113 321 113zM741 487h-153q-303 0 -367 -122q-20 -41 -20 -97q0 -98 61 -152
t162 -55q170 0 317 113v313zM598 1282q0 34 23 58t57 24t56 -24t22 -58t-23 -58q-23 -22 -57 -22t-56 22t-22 58zM233 1282q0 34 23 58q22 24 56 24t57 -24t23 -58t-24 -58q-22 -22 -56 -22t-56 22t-23 58z" />
    <glyph glyph-name="aring.aalt" horiz-adv-x="1003" 
d="M326 1274q0 74 47 118t121 44t120 -44t48 -118q0 -74 -48 -118t-120 -44q-74 0 -121 44t-47 118zM399 1274q0 -43 26 -67q26 -23 69 -23q42 0 68 24t26 66t-26 66t-68 24t-69 -24q-26 -24 -26 -66zM473 1018q262 0 340 -210q27 -73 27 -175v-633h-78l-12 86h-5
q-53 -45 -137 -81t-173 -36q-154 0 -248 81q-89 81 -89 228q0 297 475 295h168v60q-1 165 -75 229t-211 64t-258 -95l-45 74q131 113 321 113zM741 487h-153q-303 0 -367 -122q-20 -41 -20 -97q0 -98 61 -152t162 -55q170 0 317 113v313z" />
    <glyph glyph-name="amacron.aalt" horiz-adv-x="1003" 
d="M473 1018q262 0 340 -210q27 -73 27 -175v-633h-78l-12 86h-5q-53 -45 -137 -81t-173 -36q-154 0 -248 81q-89 81 -89 228q0 297 475 295h168v60q-1 165 -75 229t-211 64t-258 -95l-45 74q131 113 321 113zM741 487h-153q-303 0 -367 -122q-20 -41 -20 -97q0 -98 61 -152
t162 -55q170 0 317 113v313zM250 1221v88h489v-88h-489z" />
    <glyph glyph-name="abreve.aalt" horiz-adv-x="1003" 
d="M473 1018q262 0 340 -210q27 -73 27 -175v-633h-78l-12 86h-5q-53 -45 -137 -81t-173 -36q-154 0 -248 81q-89 81 -89 228q0 297 475 295h168v60q-1 165 -75 229t-211 64t-258 -95l-45 74q131 113 321 113zM741 487h-153q-303 0 -367 -122q-20 -41 -20 -97q0 -98 61 -152
t162 -55q170 0 317 113v313zM494 1255q90 0 132 32t70 71l54 -41q-36 -61 -94 -105t-162 -43q-104 0 -163 43q-58 43 -93 105l53 41q29 -39 71 -71t132 -32z" />
    <glyph glyph-name="aogonek.aalt" horiz-adv-x="1003" 
d="M690 -436q-88 0 -135 48t-47 110t23 107q43 79 153 159q35 25 72 50l-6 48h-5q-53 -45 -137 -81t-173 -36q-154 0 -248 81q-89 81 -89 228q0 297 475 295h168v60q-1 165 -75 229t-211 64t-258 -95l-45 74q131 113 321 113q262 0 340 -210q27 -73 27 -175v-633
q-124 -84 -184 -137t-60 -117q0 -36 24 -66t84 -30t134 47l14 -78q-74 -55 -162 -55zM741 487h-153q-303 0 -367 -122q-20 -41 -20 -97q0 -98 61 -152t162 -55q170 0 317 113v313z" />
    <glyph glyph-name="aringacute.aalt" horiz-adv-x="1003" 
d="M473 1018q262 0 340 -210q27 -73 27 -175v-633h-78l-12 86h-5q-53 -45 -137 -81t-173 -36q-154 0 -248 81q-89 81 -89 228q0 297 475 295h168v60q-1 165 -75 229t-211 64t-258 -95l-45 74q131 113 321 113zM741 487h-153q-303 0 -367 -122q-20 -41 -20 -97q0 -98 61 -152
t162 -55q170 0 317 113v313zM455 1411v10l98 226h111v-11l-121 -225h-88zM329 1218q0 68 47 108t120 40t120 -40t47 -108t-47 -107q-47 -40 -120 -40t-120 40t-47 107zM402 1218q0 -39 26 -60q26 -22 68 -22q43 0 68 22t26 60q0 38 -26 60t-68 22t-68 -22t-26 -60z" />
    <glyph glyph-name="uni0444.aalt" horiz-adv-x="1273" 
d="M1153 292.5q0 -303.5 -467 -323.5v-375h-98v375q-467 20 -467 385.5t105 503t362 156.5v420h98v-420q374 -27 420.5 -222.5t46.5 -499zM1051 495q0 188 -76.5 298.5t-288.5 130.5v-867q301 26 333 190.5t32 247.5zM223 495q0 -191 77.5 -304.5t287.5 -133.5v867
q-302 -26 -333.5 -186t-31.5 -243z" />
    <glyph glyph-name="Euro.aalt" 
d="M254 676v52t4 81h-182v86h190q51 385 233.5 456.5t282.5 71.5q208 0 346 -88l-28 -92q-133 82 -295 82q-294 0 -357 -165t-77 -265h522v-88l-533 2q-2 -29 -2 -36v-92q0 -85 4 -116h531v-86h-520q60 -411 432 -411q158 0 278 75l35 -86q-139 -88 -313 -88
q-454 0 -537 510h-192v86h182q-4 62 -4 111z" />
    <glyph glyph-name="uni20A8.aalt" 
d="M1034 1069v-98h-155q-14 -156 -119 -244t-303 -88h-107l576 -625v-14h-129l-600 657v76h247q305 0 330 238h-577v98h575q-29 219 -311 225h-264v99h837v-99h-307v-6q131 -62 152 -219h155z" />
    <glyph glyph-name="registered.aalt" horiz-adv-x="1712" 
d="M885 725q72 0 117 27.5t45 106.5t-45.5 105.5t-116.5 26.5h-189v-266h189zM887 1079q258 0 258 -219q0 -94 -50.5 -149.5t-142.5 -67.5l242 -319v-11h-104l-246 326h-148v-326h-94v766h285zM856 59q277 0 454 178.5t177 458.5q0 279 -176.5 458t-454.5 179t-454.5 -178.5
t-176.5 -458.5q0 -279 177 -458t454 -179zM1583 696.5q0 -153.5 -55 -287t-153.5 -231.5t-231.5 -153.5t-287 -55.5t-287 55.5t-231 153.5t-153.5 231.5t-55.5 287t55.5 286.5t153.5 231.5t231 153.5t287 55t287 -55t231.5 -153.5t153.5 -231.5t55 -286.5z" />
    <glyph glyph-name="guillemotleft.aalt" horiz-adv-x="999" 
d="M123 700l305 418l70 -51l-271 -369l267 -368l-66 -51l-305 417v4zM477 700l305 418l70 -51l-270 -369l266 -368l-66 -51l-305 417v4z" />
    <glyph glyph-name="bracketleft.aalt" horiz-adv-x="624" 
d="M532 1618v-78l-249 -18v-1651l249 -18v-74h-352v1839h352z" />
    <glyph glyph-name="guilsinglright.aalt" horiz-adv-x="645" 
d="M522 696l-305 -417l-65 51l266 368l-271 369l70 51l305 -418v-4z" />
    <glyph glyph-name="bar.aalt" horiz-adv-x="458" 
d="M279 -221h-99v1839h99v-1839z" />
    <glyph glyph-name="periodcentered.aalt" horiz-adv-x="516" 
d="M168 700q0 41 26 66t64 25t65 -25q25 -25 25 -66q0 -42 -26 -66t-64 -24t-64 24t-26 66z" />
    <glyph glyph-name="bullet.aalt" horiz-adv-x="634" 
d="M205 884q0 53 33 85t83 32q49 0 83 -32t34 -85t-33 -85t-83 -32t-84 32q-33 32 -33 85z" />
    <glyph glyph-name="emdash.aalt" horiz-adv-x="1806" 
d="M170 653v88h1466v-88h-1466z" />
    <glyph glyph-name="bracketright.aalt" horiz-adv-x="624" 
d="M444 1618v-1839h-352v74l250 18v1651l-250 18v78h352z" />
    <glyph glyph-name="endash.aalt" horiz-adv-x="1128" 
d="M170 653v88h788v-88h-788z" />
    <glyph glyph-name="hyphen.case" horiz-adv-x="829" 
d="M170 662v88h489v-88h-489z" />
    <glyph glyph-name="guillemotright.aalt" horiz-adv-x="999" 
d="M522 696l-305 -417l-65 51l266 368l-271 369l70 51l305 -418v-4zM877 696l-306 -417l-65 51l266 368l-270 369l69 51l306 -418v-4z" />
    <glyph glyph-name="parenleft.case" horiz-adv-x="546" 
d="M244 692q0 -489 209 -913l-80 -41q-114 238 -157 391q-77 281 -79 565q0 397 144 749q43 105 92 208l80 -41q-209 -429 -209 -918z" />
    <glyph glyph-name="guilsinglleft.aalt" horiz-adv-x="645" 
d="M123 700l305 418l70 -51l-271 -369l267 -368l-66 -51l-305 417v4z" />
    <glyph glyph-name="braceright.aalt" horiz-adv-x="634" 
d="M291 1348q0 102 -41 147t-154 45v78h10q167 0 227 -63t60 -207v-449q0 -72 27 -113t112 -41v-94q-86 0 -112 -41t-27 -112v-449q0 -145 -61 -208q-61 -62 -226 -62h-10v78q113 0 154 45t41 147v430q0 92 26 143q27 50 82 74v4q-55 25 -82 75t-26 143v430z" />
    <glyph glyph-name="braceleft.aalt" horiz-adv-x="634" 
d="M344 479v-430q0 -102 41 -147t154 -45v-78h-11q-165 0 -225 62q-61 62 -61 208v449q0 72 -27 112t-113 41v94q86 0 113 41t27 113v449q0 144 61 207t225 63h11v-78q-113 0 -154 -45t-41 -147v-430q0 -168 -108 -218v-4q56 -24 82 -74t26 -143z" />
    <glyph glyph-name="parenright.case" horiz-adv-x="548" 
d="M305 696q0 488 -209 914l80 41q114 -238 157 -391q77 -281 79 -566q0 -396 -144 -748q-43 -105 -92 -208l-80 41q209 429 209 917z" />
    <glyph glyph-name="minus.case" horiz-adv-x="1638" 
d="M1272 731v-88h-907v88h907z" />
    <glyph glyph-name="zero.frac" horiz-adv-x="696" 
d="M348 1409q130 0 198 -94t68 -252q0 -244 -148 -321q-50 -26 -118 -26t-118 26q-148 75 -148 321t148 320q50 26 118 26zM172 1062q0 -265 176 -263q176 0 176 265t-176 263q-176 0 -176 -265z" />
    <glyph glyph-name="one.frac" horiz-adv-x="448" 
d="M51 1202v80l225 111h70v-664h-86v567h-2l-197 -94h-10z" />
    <glyph glyph-name="two.frac" horiz-adv-x="598" 
d="M277 1409q113 0 172 -59q59 -60 59 -142t-30 -129t-75 -92l-194 -180v-2h311v-76h-446v66l237 219q43 39 75 82t32 100t-37 95t-111 38t-151 -74l-47 62q92 92 205 92z" />
    <glyph glyph-name="three.frac" horiz-adv-x="612" 
d="M438 913q0 115 -176 115h-102v76h106q86 0 123 32t37 76q0 117 -145 117q-96 0 -168 -39l-29 72q84 47 195 47q113 0 175 -48q62 -49 62 -121t-33 -112t-77 -57v-2q124 -42 122 -160q0 -92 -70 -144t-158 -52q-142 0 -234 49l26 74q93 -43 182 -43q164 0 164 120z" />
    <glyph glyph-name="four.frac" horiz-adv-x="655" 
d="M492 1231v-279h104v-75h-104v-148h-86v148h-349v59l185 457h90l-174 -439v-2h248v279h86z" />
    <glyph glyph-name="five.frac" horiz-adv-x="595" 
d="M254 1059q-99 0 -139 -4l-11 10l46 328h344v-76h-271l-24 -180h67q256 0 254 -205q0 -104 -69 -162q-70 -57 -186 -57t-202 41l21 73q80 -34 171 -34t133 31q42 32 42 108q0 127 -176 127z" />
    <glyph glyph-name="six.frac" horiz-adv-x="610" 
d="M164 942q0 -61 39 -105t109 -44t108 44q39 44 39 105q0 60 -39 104t-109 44q-71 0 -109 -44t-38 -104zM326 1169q109 0 166 -62t57 -165q0 -148 -126 -208q-46 -22 -112 -21q-119 -1 -178 65t-59 159t65 189l162 267h96v-11l-147 -225v-2q35 14 76 14z" />
    <glyph glyph-name="seven.frac" horiz-adv-x="530" 
d="M387 1317h-338v76h436v-64l-247 -600h-93v10l242 576v2z" />
    <glyph glyph-name="eight.frac" horiz-adv-x="638" 
d="M319 1120q70 0 97 32t26 73q0 41 -26 73t-97 31q-71 0 -97 -32q-26 -33 -26 -73t27 -72q26 -32 96 -32zM106 1224q0 85 56 135t157 50t157 -50t56 -135t-102 -143v-2q59 -20 95 -66t36 -118t-59 -127q-58 -55 -182 -55t-183 55q-59 54 -59 126t36 118t95 67v2
q-103 58 -103 143zM319 793q82 -1 117 37t35 85t-35 85t-117 38q-83 0 -117 -38t-34 -85t34 -85t117 -37z" />
    <glyph glyph-name="nine.frac" horiz-adv-x="608" 
d="M444 1180q0 61 -38 105q-39 44 -109 44t-109 -44q-38 -44 -38 -105t38 -105q39 -43 109 -43t109 43q38 44 38 105zM283 952q-109 0 -166 62t-57 157q0 94 58 166q59 72 179 72q119 0 178 -66t59 -157t-65 -191l-162 -266h-96v10l147 226v2q-37 -15 -75 -15z" />
    <glyph glyph-name="comma.numr" horiz-adv-x="321" 
d="M219 842v-11l-72 -309h-67v10l33 310h106z" />
    <glyph glyph-name="plus.numr" horiz-adv-x="526" 
d="M305 1118h148v-76h-148v-151h-84v151h-147v76h147v154h84v-154z" />
    <glyph glyph-name="hyphen.numr" horiz-adv-x="466" 
d="M104 1047v75h258v-75h-258z" />
    <glyph glyph-name="minus.numr" horiz-adv-x="589" 
d="M104 1047v75h381v-75h-381z" />
    <glyph glyph-name="parenleft.numr" horiz-adv-x="344" 
d="M219 618q-141 218 -141 437t141 446l55 -33q-108 -200 -108 -411t108 -406z" />
    <glyph glyph-name="period.numr" horiz-adv-x="342" 
d="M90 794q0 36 23 58t59 22t57 -22t21 -58t-20 -59t-58 -23t-60 24q-22 22 -22 58z" />
    <glyph glyph-name="parenright.numr" horiz-adv-x="344" 
d="M125 1501q141 -228 141 -446q0 -219 -141 -437l-55 33q110 195 109 407t-109 410z" />
    <glyph glyph-name="zero.dnom" horiz-adv-x="696" 
d="M82 334q0 76 16.5 139.5t49 109.5t83 71.5t118 25.5t117.5 -25.5t83 -71.5t49 -109.5t16 -139.5t-16 -139.5t-49 -109.5t-83 -71.5t-117.5 -25.5t-118 25.5t-83 71.5t-49 109.5t-16.5 139.5zM348 598q-176 0 -176 -264t176 -264t176 264t-176 264z" />
    <glyph glyph-name="one.dnom" horiz-adv-x="448" 
d="M51 473v80l225 111h70v-664h-86v567h-2l-197 -94h-10z" />
    <glyph glyph-name="two.dnom" horiz-adv-x="595" 
d="M274 680q112 0 172 -59.5t60 -141.5t-30 -129t-75 -92l-194 -180v-2h311v-76h-446v66l237 219q43 39 75 82t32 100t-37 95t-111 38t-151 -74l-47 62q92 92 204 92z" />
    <glyph glyph-name="three.dnom" horiz-adv-x="612" 
d="M438 184q0 115 -176 115h-102v76h106q86 0 123 31.5t37 76.5q0 117 -145 117q-96 0 -168 -39l-29 72q84 47 195 47q112 0 174.5 -48t62.5 -120t-32.5 -113t-77.5 -57v-2q122 -41 122 -160q0 -92 -69 -144t-159 -52q-145 0 -234 49l26 73q93 -43 182 -43q164 0 164 121z
" />
    <glyph glyph-name="four.dnom" horiz-adv-x="655" 
d="M492 502v-279h104v-76h-104v-147h-86v147h-349v60l185 457h90l-174 -439v-2h248v279h86z" />
    <glyph glyph-name="five.dnom" horiz-adv-x="595" 
d="M254 330q-99 0 -139 -4l-11 10l46 328h344v-76h-271l-24 -180h67q254 0 254 -155t-69.5 -212t-186.5 -57t-201 41l21 73q82 -35 172 -35t132 32t42 108q0 127 -176 127z" />
    <glyph glyph-name="six.dnom" horiz-adv-x="608" 
d="M164 213q0 -61 39 -105.5t108.5 -44.5t108.5 44.5t39 105.5t-39 104t-108.5 43t-108.5 -43t-39 -104zM326 440q109 0 166 -62.5t57 -157.5t-57.5 -165.5t-178.5 -70.5t-180 65.5t-59 158.5t65 189l162 267h96v-11l-147 -225v-2q35 14 76 14z" />
    <glyph glyph-name="seven.dnom" horiz-adv-x="530" 
d="M387 588h-338v76h436v-64l-247 -600h-93v10l242 576v2z" />
    <glyph glyph-name="eight.dnom" horiz-adv-x="638" 
d="M319.5 391q69.5 0 96 32t26.5 73t-26.5 72.5t-96 31.5t-96 -31.5t-26.5 -72.5t26.5 -73t96 -32zM106 495q0 85 56.5 135t157 50t156.5 -50t56 -135t-102 -143v-2q59 -20 95 -66t36 -118t-59.5 -127t-182 -55t-182 55t-59.5 127t36 118t95 66v2q-103 58 -103 143z
M319.5 63q81.5 0 116.5 38t35 85t-35 85t-116.5 38t-116.5 -38t-35 -85t35 -85t116.5 -38z" />
    <glyph glyph-name="nine.dnom" horiz-adv-x="608" 
d="M444 450.5q0 61.5 -38.5 105.5t-108.5 44t-108.5 -44t-38.5 -105.5t38.5 -104.5t108.5 -43t108.5 43t38.5 104.5zM283 223q-109 0 -166.5 62.5t-57.5 156.5t58 166t179 72q120 0 179.5 -66t59.5 -158t-66 -190l-162 -266h-96v10l147 226v2q-37 -15 -75 -15z" />
    <glyph glyph-name="comma.dnom" horiz-adv-x="321" 
d="M219 113v-11l-72 -309h-67v10l33 310h106z" />
    <glyph glyph-name="plus.dnom" horiz-adv-x="526" 
d="M305 389h148v-76h-148v-151h-84v151h-147v76h147v154h84v-154z" />
    <glyph glyph-name="parenright.dnom" horiz-adv-x="344" 
d="M125 772q141 -228 141 -446q0 -219 -141 -437l-55 33q108 192 108 404q0 213 -108 413z" />
    <glyph glyph-name="hyphen.dnom" horiz-adv-x="466" 
d="M104 317v76h258v-76h-258z" />
    <glyph glyph-name="minus.dnom" horiz-adv-x="589" 
d="M104 317v76h381v-76h-381z" />
    <glyph glyph-name="parenleft.dnom" horiz-adv-x="344" 
d="M219 -111q-141 218 -141 437t141 446l55 -33q-108 -200 -108 -413t108 -404z" />
    <glyph glyph-name="period.dnom" horiz-adv-x="342" 
d="M90 64q0 36 22.5 58.5t59.5 22.5t57.5 -22.5t20.5 -58.5t-20.5 -58t-57.5 -22t-59.5 22t-22.5 58z" />
    <glyph glyph-name="minus.sinf" horiz-adv-x="589" 
d="M104 74v76h381v-76h-381z" />
    <glyph glyph-name="plus.sinf" horiz-adv-x="526" 
d="M305 145h148v-75h-148v-152h-84v152h-147v75h147v154h84v-154z" />
    <glyph glyph-name="glyph715" 
d="M526 1180v12l64 274h78v-12l-33 -274h-109z" />
    <glyph glyph-name="glyph716" 
d="M674 1393v-13l-64 -274h-78v12l33 275h109z" />
    <glyph glyph-name="glyph717" 
d="M674 -160v-12l-64 -274h-78v12l33 274h109z" />
    <glyph glyph-name="glyph718" 
d="M498 1759h114l99 -225v-10h-93l-120 225v10z" />
    <glyph glyph-name="glyph719" 
d="M496 1524v10l98 225h115v-10l-121 -225h-92z" />
    <glyph glyph-name="glyph720" 
d="M850 1524h-107l-139 149l-139 -149h-107v10l209 225h74l209 -225v-10z" />
    <glyph glyph-name="glyph721" 
d="M358 1759h107l139 -149l139 149h107v-10l-209 -225h-74l-209 225v10z" />
    <glyph glyph-name="glyph722" 
d="M502 1726q45 0 112.5 -39.5t97.5 -39.5q56 0 107 71l47 -59q-66 -100 -159 -100q-44 0 -113 39.5t-98 39.5q-54 0 -107 -71l-47 59q66 100 160 100z" />
    <glyph glyph-name="glyph723" 
d="M707 1640.5q0 34.5 22.5 58t56.5 23.5t56 -23.5t22 -58t-22.5 -57t-56.5 -22.5t-56 22.5t-22 57zM342 1640.5q0 34.5 22.5 58t56.5 23.5t56.5 -23.5t22.5 -58t-22.5 -57t-56.5 -22.5t-56.5 22.5t-22.5 57z" />
    <glyph glyph-name="glyph724" 
d="M356 1608v92h490v-92h-490z" />
    <glyph glyph-name="glyph725" 
d="M526 1116v10l52 267h104v-11l-84 -266h-72z" />
    <glyph glyph-name="glyph726" 
d="M602 1655q90 0 132 31.5t71 70.5l53 -45q-35 -61 -93 -104t-162.5 -43t-163 43t-93.5 104l53 45q29 -39 71 -70.5t132 -31.5z" />
    <glyph glyph-name="glyph727" 
d="M436 1669q0 74 47 118t121 44t121 -44t47 -118t-47 -118t-121 -44t-121 44t-47 118zM510 1669q0 -43 25.5 -66.5t68.5 -23.5t68.5 23.5t25.5 66.5t-25.5 66.5t-68.5 23.5t-68.5 -23.5t-25.5 -66.5z" />
    <glyph glyph-name="glyph728" 
d="M623 1524v10l98 225h115v-10l-121 -225h-92zM365 1524v10l98 225h115v-10l-121 -225h-92z" />
    <glyph glyph-name="glyph729" 
d="M520 1642.5q0 34.5 22.5 58t56.5 23.5t56.5 -23.5t22.5 -58t-22.5 -57t-56.5 -22.5t-56.5 22.5t-22.5 57z" />
    <glyph glyph-name="glyph730" horiz-adv-x="1126" 
d="M661 -436q-79 0 -124 47t-45 107q0 102 53.5 171t169.5 172l47 -61q-92 -86 -137 -141.5t-45 -105.5q0 -103 98 -103q53 0 102 47l15 -78q-55 -55 -134 -55z" />
    </font>
</defs>
</svg>
